<?xml version="1.0" standalone="no"?>
    <!--
 Remix Icon v3.6.0
 https://remixicon.com
 https://github.com/Remix-Design/RemixIcon

 Copyright RemixIcon.com
 Released under the Apache License Version 2.0

 Date: 2023-11-28
-->
<!DOCTYPE svg PUBLIC "-//W3C//DTD SVG 1.1//EN" "http://www.w3.org/Graphics/SVG/1.1/DTD/svg11.dtd" >
<svg xmlns="http://www.w3.org/2000/svg">
<defs>
  <font id="remixicon" horiz-adv-x="1152">
    <font-face font-family="remixicon"
      units-per-em="1200" ascent="1020"
      descent="180" />
    <missing-glyph horiz-adv-x="0" />
    <glyph glyph-name="24-hours-fill"
      unicode="&#xEA01;"
      horiz-adv-x="1152" d="M576.0004799999999 372.00072C655.52688 372.00072 720.0004799999999 307.52712 720.0004799999999 228.00072C720.0004799999999 187.23912 703.0660799999999 150.43752 675.85008 124.23912L584.16528 36.0199199999999L720.0004799999999 36.0007199999999V-59.99928H431.99952L431.95632 22.77192L609.2836799999999 193.41192C618.3604799999999 202.15752 624.0004799999999 214.4215200000001 624.0004799999999 228.00072C624.0004799999999 254.5111200000001 602.5108799999999 276.00072 576.0004799999999 276.00072C549.4900799999999 276.00072 528.0004799999999 254.5111200000001 528.0004799999999 228.00072H431.99952C431.99952 307.52712 496.46928 372.00072 576.0004799999999 372.00072zM864.0004799999999 372.00072V180.00072H960.00048V372.00072H1056.0004800000002V-59.99928H960.00048V84.00072H768.0004799999999V372.00072H864.0004799999999zM191.99952 420.00072C191.99952 298.72392 248.21904 190.5799200000001 336.01824 120.20712L336.00048 4.21512C192.52752 87.20712 95.99952 242.3335200000001 95.99952 420.00072H191.99952zM576.0004799999999 899.99928C824.89488 899.99928 1029.54288 710.56152 1053.62928 468.00552L957.02928 467.99592C933.40848 657.4212 771.8212799999999 803.99928 576.0004799999999 803.99928C457.7342399999999 803.99928 351.95616 750.5354400000001 281.51568 666.4586400000001L383.99952 563.99928H95.99952V851.99928L213.4344 734.5682400000001C301.44096 835.9149600000001 431.23632 899.99928 576.0004799999999 899.99928z" />
    <glyph glyph-name="24-hours-line"
      unicode="&#xEA02;"
      horiz-adv-x="1152" d="M576.0004799999999 372.00072C655.52688 372.00072 720.0004799999999 307.52712 720.0004799999999 228.00072C720.0004799999999 187.23912 703.0660799999999 150.43752 675.85008 124.23912L584.16528 36.0199199999999L720.0004799999999 36.0007199999999V-59.99928H431.99952L431.95632 22.77192L609.2836799999999 193.41192C618.3604799999999 202.15752 624.0004799999999 214.4215200000001 624.0004799999999 228.00072C624.0004799999999 254.5111200000001 602.5108799999999 276.00072 576.0004799999999 276.00072C549.4900799999999 276.00072 528.0004799999999 254.5111200000001 528.0004799999999 228.00072H431.99952C431.99952 307.52712 496.46928 372.00072 576.0004799999999 372.00072zM864.0004799999999 372.00072V180.00072H960.00048V372.00072H1056.0004800000002V-59.99928H960.00048V84.00072H768.0004799999999V372.00072H864.0004799999999zM191.99952 420.00072C191.99952 298.72392 248.21904 190.5799200000001 336.01824 120.20712L336.00048 4.21512C192.52752 87.20712 95.99952 242.3335200000001 95.99952 420.00072H191.99952zM576.0004799999999 899.99928C824.89488 899.99928 1029.54288 710.56152 1053.62928 468.00552L957.02928 467.99592C933.40848 657.4212 771.8212799999999 803.99928 576.0004799999999 803.99928C444.01008 803.99928 327.57408 737.40696 258.45648 635.98776L383.99952 635.99928V539.99928H95.99952V827.99928H191.99952L191.9942399999999 708.03864C279.56784 824.60328 418.97904 899.99928 576.0004799999999 899.99928z" />
    <glyph glyph-name="4k-fill"
      unicode="&#xEA03;"
      horiz-adv-x="1152" d="M144 852H1008C1034.5104 852 1056 830.50944 1056 804V36C1056 9.4896000000001 1034.5104 -12 1008 -12H144C117.49056 -12 96 9.4896000000001 96 36V804C96 830.50944 117.49056 852 144 852zM552 348V420H504V564H432V420H360V564H288V348H432V276H504V348H552zM864 276L756 420L864 564H780L696 456V564H624V276H696V384L780 276H864z" />
    <glyph glyph-name="4k-line"
      unicode="&#xEA04;"
      horiz-adv-x="1152" d="M192 756V84H960V756H192zM144 852H1008C1034.5104 852 1056 830.50944 1056 804V36C1056 9.4896000000001 1034.5104 -12 1008 -12H144C117.49056 -12 96 9.4896000000001 96 36V804C96 830.50944 117.49056 852 144 852zM552 348H504V276H432V348H288V564H360V420H432V564H504V420H552V348zM864 276H780L696 384V276H624V564H696V456L780 564H864L756 420L864 276z" />
    <glyph glyph-name="a-b"
      unicode="&#xEA05;"
      horiz-adv-x="1152" d="M206.4000000000001 276V180C206.4000000000001 129.3888 252.0000000000001 84 302.4000000000001 84H446.4000000000001V-12H302.4000000000001C196.3612800000001 -12 110.4000000000001 73.9632 110.4000000000001 180V276H206.4000000000001zM830.4000000000001 516L1041.6 -12H938.16L880.5120000000002 132H684.1920000000001L626.6400000000001 -12H523.2480000000002L734.4000000000001 516H830.4000000000001zM782.4000000000001 377.5104L722.5440000000001 228H842.1600000000001L782.4000000000001 377.5104zM110.4000000000001 852H398.4000000000001C477.9312000000001 852 542.4000000000001 787.5288 542.4000000000001 708C542.4000000000001 671.09856 528.5184000000002 637.43904 505.6944000000001 611.95776C528.5376000000001 586.51968 542.4000000000001 552.87888 542.4000000000001 516C542.4000000000001 436.4688 477.9312000000001 372 398.4000000000001 372H110.4000000000001V852zM398.4000000000001 564H206.4000000000001V468H398.4000000000001C424.9094400000001 468 446.4000000000001 489.4896 446.4000000000001 516C446.4000000000001 542.4000000000001 424.8000000000002 564 398.4000000000001 564zM782.4000000000001 852C888.4368000000001 852 974.4 766.03872 974.4 660V564H878.4000000000001V660C878.4000000000001 713.01936 835.4208000000001 756 782.4000000000001 756H638.4000000000001V852H782.4000000000001zM398.4000000000001 756H206.4000000000001V660H398.4000000000001C424.9094400000001 660 446.4000000000001 681.49056 446.4000000000001 708C446.4000000000001 734.4 424.8000000000002 756 398.4000000000001 756z" />
    <glyph glyph-name="account-box-fill"
      unicode="&#xEA06;"
      horiz-adv-x="1152" d="M144 756.23568C144 809.12496 186.84576 852 239.76432 852H912.2352C965.1264 852 1008 809.1542400000001 1008 756.23568V83.7648C1008 30.8736 965.1552 -12 912.2352 -12H239.76432C186.87504 -12 144 30.8448000000001 144 83.7648V756.23568zM305.12976 132H856.6800000000001C795.96 219.048 695.0832 276 580.9056 276C466.72512 276 365.84736 219.048 305.12976 132zM576 372C668.784 372 744 447.216 744 540C744 632.784 668.784 708 576 708C483.216 708 408 632.784 408 540C408 447.216 483.216 372 576 372z" />
    <glyph glyph-name="account-box-line"
      unicode="&#xEA07;"
      horiz-adv-x="1152" d="M144 756.23568C144 809.12496 186.84576 852 239.76432 852H912.2352C965.1264 852 1008 809.1542400000001 1008 756.23568V83.7648C1008 30.8736 965.1552 -12 912.2352 -12H239.76432C186.87504 -12 144 30.8448000000001 144 83.7648V756.23568zM240 756V84H912V756H240zM382.66368 123.3216C352.96656 136.1808 324.8251200000001 151.9536000000001 298.5998400000001 170.2847999999999C358.4510400000001 262.7856000000001 462.52896 324 580.9056 324C696.072 324 797.7072000000001 266.0591999999999 858.2447999999999 177.7344000000001C832.5024000000001 158.7072000000001 804.7872 142.1904 775.4639999999999 128.5536C731.8656 188.8032 660.96 228 580.9056 228C498.552 228 425.89008 186.5232 382.66368 123.3216zM576 372C483.216 372 408 447.216 408 540C408 632.784 483.216 708 576 708C668.784 708 744 632.784 744 540C744 447.216 668.784 372 576 372zM576 468C615.7632 468 648 500.2368 648 540C648 579.7646400000001 615.7632 612 576 612C536.2368 612 504 579.7646400000001 504 540C504 500.2368 536.2368 468 576 468z" />
    <glyph glyph-name="account-circle-fill"
      unicode="&#xEA08;"
      horiz-adv-x="1152" d="M576 900C840.96 900 1056 684.96 1056 420C1056 155.04 840.96 -60 576 -60C311.04 -60 96 155.04 96 420C96 684.96 311.04 900 576 900zM289.1193600000001 256.0176C359.55984 150.8688 465.36528 84 583.6656 84C701.9664 84 807.7728000000001 150.8688 878.2128 256.0176C801.048 327.9744000000001 697.4976 372 583.6656 372C469.83408 372 366.2856000000001 327.9744000000001 289.1193600000001 256.0176zM576 468C655.5312 468 720 532.4712 720 612C720 691.5288 655.5312 756 576 756C496.4688 756 432 691.5288 432 612C432 532.4712 496.4688 468 576 468z" />
    <glyph glyph-name="account-circle-line"
      unicode="&#xEA09;"
      horiz-adv-x="1152" d="M576 900C841.0944 900 1056 685.0968 1056 420C1056 154.9056000000001 841.0944 -60 576 -60C310.9032 -60 96 154.9056000000001 96 420C96 685.0968 310.9032 900 576 900zM583.6656 228C485.9664 228 398.00736 186.3024 336.61248 119.7312C402.2587200000001 67.3248 485.472 36 576 36C670.5360000000001 36 757.0896 70.1616 823.9967999999999 126.8112C762.9888 189.2448 677.8512000000001 228 583.6656 228zM576 804C363.92256 804 192 632.07744 192 420C192 333.0912 220.872 252.9264 269.5473600000001 188.5727999999999C348.30672 271.9632000000001 459.90912 324 583.6656 324C702.9168 324 810.8784 275.6832 889.0464 197.5584C933.7248 260.3184 960 337.0896 960 420C960 632.07744 788.0783999999999 804 576 804zM576 756C682.0368 756 768 670.03872 768 564C768 457.9632 682.0368 372 576 372C469.96128 372 384 457.9632 384 564C384 670.03872 469.96128 756 576 756zM576 660C522.9792 660 480 617.01936 480 564C480 510.9792 522.9792 468 576 468C629.0208 468 672 510.9792 672 564C672 617.01936 629.0208 660 576 660z" />
    <glyph glyph-name="account-pin-box-fill"
      unicode="&#xEA0A;"
      horiz-adv-x="1152" d="M672 36L576 -60L480 36H239.76432C186.87504 36 144 78.8448000000001 144 131.7648V804.23568C144 857.12496 186.84576 900 239.76432 900H912.2352C965.1264 900 1008 857.1542400000001 1008 804.23568V131.7648C1008 78.8736 965.1552 36 912.2352 36H672zM305.12976 180H856.6800000000001C795.96 267.048 695.0832 324 580.9056 324C466.72512 324 365.84736 267.048 305.12976 180zM576 420C668.784 420 744 495.216 744 588C744 680.784 668.784 756 576 756C483.216 756 408 680.784 408 588C408 495.216 483.216 420 576 420z" />
    <glyph glyph-name="account-pin-box-line"
      unicode="&#xEA0B;"
      horiz-adv-x="1152" d="M672 36L576 -60L480 36H239.76432C186.87504 36 144 78.8448000000001 144 131.7648V804.23568C144 857.12496 186.84576 900 239.76432 900H912.2352C965.1264 900 1008 857.1542400000001 1008 804.23568V131.7648C1008 78.8736 965.1552 36 912.2352 36H672zM912 132V804H240V132H519.7632L576 75.7631999999999L632.2368 132H912zM382.66368 171.3216C352.96656 184.1808 324.8251200000001 199.9536000000001 298.5998400000001 218.2847999999999C358.4510400000001 310.7856000000001 462.52896 372 580.9056 372C696.072 372 797.7072000000001 314.0591999999999 858.2447999999999 225.7344000000001C832.5024000000001 206.7072000000001 804.7872 190.1904 775.4639999999999 176.5536C731.8656 236.8032 660.96 276 580.9056 276C498.552 276 425.89008 234.5232 382.66368 171.3216zM576 420C483.216 420 408 495.216 408 588C408 680.784 483.216 756 576 756C668.784 756 744 680.784 744 588C744 495.216 668.784 420 576 420zM576 516C615.7632 516 648 548.2368 648 588C648 627.7646400000001 615.7632 660 576 660C536.2368 660 504 627.7646400000001 504 588C504 548.2368 536.2368 516 576 516z" />
    <glyph glyph-name="account-pin-circle-fill"
      unicode="&#xEA0C;"
      horiz-adv-x="1152" d="M684.2784 0.2784000000001L576 -108L467.71968 0.2784000000001C254.85168 49.4207999999999 96 240.2736 96 468C96 732.96 311.04 948 576 948C840.96 948 1056 732.96 1056 468C1056 240.2736 897.1487999999999 49.4207999999999 684.2784 0.2784000000001zM289.1193600000001 304.0176C359.55984 198.8688 465.36528 132 583.6656 132C701.9664 132 807.7728000000001 198.8688 878.2128 304.0176C801.048 375.9744000000001 697.4976 420 583.6656 420C469.83408 420 366.2856000000001 375.9744000000001 289.1193600000001 304.0176zM576 516C655.5312 516 720 580.4712 720 660C720 739.5288 655.5312 804 576 804C496.4688 804 432 739.5288 432 660C432 580.4712 496.4688 516 576 516z" />
    <glyph glyph-name="account-pin-circle-line"
      unicode="&#xEA0D;"
      horiz-adv-x="1152" d="M467.74176 0.2592C254.78304 49.3488 96 240.1296 96 468C96 733.0968 310.9032 948 576 948C841.0944 948 1056 733.0968 1056 468C1056 240.1296 897.216 49.3488 684.2592 0.2592L576 -108L467.74176 0.2592zM336.56304 167.6784C380.3745600000001 132.672 432.20784 106.9680000000001 489.3072 93.8063999999999L516.1487999999999 87.6191999999999L576 27.7631999999999L635.8512000000001 87.6191999999999L662.6928 93.8063999999999C723.576 107.8416 778.4784 136.1327999999999 824.0448 174.7631999999999C763.0319999999999 237.2256 677.88 276 583.6656 276C485.9424 276 397.95984 234.2784000000001 336.56304 167.6784zM269.54976 236.5727999999999C348.30912 319.9632000000001 459.91008 372 583.6656 372C702.912 372 810.8688 323.688 889.0368 245.568C933.9024 308.712 960 385.7232 960 468C960 680.07744 788.0783999999999 852 576 852C363.92256 852 192 680.07744 192 468C192 381.7728 220.65984 301.3344 269.54976 236.5727999999999zM576 420C469.96128 420 384 505.9632 384 612C384 718.03872 469.96128 804 576 804C682.0368 804 768 718.03872 768 612C768 505.9632 682.0368 420 576 420zM576 516C629.0208 516 672 558.9792 672 612C672 665.01936 629.0208 708 576 708C522.9792 708 480 665.01936 480 612C480 558.9792 522.9792 516 576 516z" />
    <glyph glyph-name="add-box-fill"
      unicode="&#xEA0E;"
      horiz-adv-x="1152" d="M192 852H960C986.5103999999998 852 1008 830.50944 1008 804V36C1008 9.4896000000001 986.5103999999998 -12 960 -12H192C165.49056 -12 144 9.4896000000001 144 36V804C144 830.50944 165.49056 852 192 852zM528 468H336V372H528V180H624V372H816V468H624V660H528V468z" />
    <glyph glyph-name="add-box-line"
      unicode="&#xEA0F;"
      horiz-adv-x="1152" d="M192 852H960C986.5103999999998 852 1008 830.50944 1008 804V36C1008 9.4896000000001 986.5103999999998 -12 960 -12H192C165.49056 -12 144 9.4896000000001 144 36V804C144 830.50944 165.49056 852 192 852zM240 756V84H912V756H240zM528 468V660H624V468H816V372H624V180H528V372H336V468H528z" />
    <glyph glyph-name="add-circle-fill"
      unicode="&#xEA10;"
      horiz-adv-x="1152" d="M576 -60C310.9032 -60 96 154.9056000000001 96 420C96 685.0968 310.9032 900 576 900C841.0944 900 1056 685.0968 1056 420C1056 154.9056000000001 841.0944 -60 576 -60zM528 468H336V372H528V180H624V372H816V468H624V660H528V468z" />
    <glyph glyph-name="add-circle-line"
      unicode="&#xEA11;"
      horiz-adv-x="1152" d="M528 468V660H624V468H816V372H624V180H528V372H336V468H528zM576 -60C310.9032 -60 96 154.9056000000001 96 420C96 685.0968 310.9032 900 576 900C841.0944 900 1056 685.0968 1056 420C1056 154.9056000000001 841.0944 -60 576 -60zM576 36C788.0783999999999 36 960 207.9216000000001 960 420C960 632.07744 788.0783999999999 804 576 804C363.92256 804 192 632.07744 192 420C192 207.9216000000001 363.92256 36 576 36z" />
    <glyph glyph-name="add-fill"
      unicode="&#xEA12;"
      horiz-adv-x="1152" d="M528 468V756H624V468H912V372H624V84H528V372H240V468H528z" />
    <glyph glyph-name="add-line"
      unicode="&#xEA13;"
      horiz-adv-x="1152" d="M528 468V756H624V468H912V372H624V84H528V372H240V468H528z" />
    <glyph glyph-name="admin-fill"
      unicode="&#xEA14;"
      horiz-adv-x="1152" d="M528 300V-84H144C144 128.0783999999999 315.92256 300 528 300zM528 348C368.88 348 240 476.88 240 636C240 795.12 368.88 924 528 924C687.12 924 816 795.12 816 636C816 476.88 687.12 348 528 348zM960 156H1008V-84H624V156H672V204C672 283.5312 736.4688 348 816 348C895.5312 348 960 283.5312 960 204V156zM864 156V204C864 230.5104 842.5103999999999 252 816 252C789.4896000000001 252 768 230.5104 768 204V156H864z" />
    <glyph glyph-name="admin-line"
      unicode="&#xEA15;"
      horiz-adv-x="1152" d="M528 300V204C368.94192 204 240 75.0576000000001 240 -84H144C144 128.0783999999999 315.92256 300 528 300zM528 348C368.88 348 240 476.88 240 636C240 795.12 368.88 924 528 924C687.12 924 816 795.12 816 636C816 476.88 687.12 348 528 348zM528 444C634.08 444 720 529.92 720 636C720 742.0799999999999 634.08 828 528 828C421.92 828 336 742.0799999999999 336 636C336 529.92 421.92 444 528 444zM960 156H1008V-84H624V156H672V204C672 283.5312 736.4688 348 816 348C895.5312 348 960 283.5312 960 204V156zM864 156V204C864 230.5104 842.5103999999999 252 816 252C789.4896000000001 252 768 230.5104 768 204V156H864z" />
    <glyph glyph-name="advertisement-fill"
      unicode="&#xEA16;"
      horiz-adv-x="1152" d="M362.49456 372L403.1505600000001 473.5104L443.7110400000001 372H362.49456zM768 420H816V324H768C741.4896 324 720 345.4896 720 372C720 398.5104 741.4896 420 768 420zM1008 852H144C117.49056 852 96 830.50944 96 804V36C96 9.4896000000001 117.49056 -12 144 -12H1008C1034.5104 -12 1056 9.4896000000001 1056 36V804C1056 830.50944 1034.5104 852 1008 852zM604.7040000000001 228H501.264L482.064 276H324.14256L304.94256 228H201.55056L259.10256 371.904L259.1505600000001 372L355.1505600000001 612H451.15056L604.7040000000001 228zM816 612H912V228H768C688.4688 228 624 292.4688 624 372C624 451.5312 688.4688 516 768 516H816V612z" />
    <glyph glyph-name="advertisement-line"
      unicode="&#xEA17;"
      horiz-adv-x="1152" d="M604.7040000000001 228L451.14864 612H355.14864L259.14864 372L259.1016 371.904L201.55056 228H304.94544L324.14064 276H482.064L501.264 228H604.7040000000001zM362.496 372L403.14864 473.5152L443.7129600000001 372H362.496zM816 612H912V228H768C688.4688 228 624 292.4688 624 372C624 451.5312 688.4688 516 768 516H816V612zM768 420C741.4944 420 720 398.5056 720 372C720 345.4944000000001 741.4944 324 768 324H816V420H768zM1008 852H144C117.492 852 96 830.508 96 804V36C96 9.4944 117.492 -12 144 -12H1008C1034.5056 -12 1056 9.4944 1056 36V804C1056 830.508 1034.5056 852 1008 852zM192 84V756H960V84H192z" />
    <glyph glyph-name="airplay-fill"
      unicode="&#xEA18;"
      horiz-adv-x="1152" d="M595.2 346.4015999999999L835.1999999999999 26.4000000000001C843.1536 15.7968000000001 841.0032000000001 0.7536 830.4000000000001 -7.1999999999999C826.248 -10.3152 821.1936000000001 -12 816 -12H336C322.74528 -12 312 -1.2528 312 12C312 17.1936000000001 313.68432 22.248 316.8 26.4000000000001L556.8 346.4015999999999C564.7536 357.0048 579.7968000000001 359.1552000000001 590.4000000000001 351.2016000000001C592.2192 349.8336 593.8368 348.2208000000001 595.2 346.4015999999999zM864 84V180H960V756H192V180H288V84H143.6064C117.3144 84 96 105.3408000000001 96 132.0432000000001V803.9582399999999C96 830.49072 117.85488 852 143.6064 852H1008.3935999999998C1034.688 852 1056 830.65776 1056 803.9582399999999V132.0432000000001C1056 105.5088000000001 1034.1455999999998 84 1008.3935999999998 84H864z" />
    <glyph glyph-name="airplay-line"
      unicode="&#xEA19;"
      horiz-adv-x="1152" d="M595.2 346.4015999999999L835.1999999999999 26.4000000000001C843.1536 15.7968000000001 841.0032000000001 0.7536 830.4000000000001 -7.1999999999999C826.248 -10.3152 821.1936000000001 -12 816 -12H336C322.74528 -12 312 -1.2528 312 12C312 17.1936000000001 313.68432 22.248 316.8 26.4000000000001L556.8 346.4015999999999C564.7536 357.0048 579.7968000000001 359.1552000000001 590.4000000000001 351.2016000000001C592.2192 349.8336 593.8368 348.2208000000001 595.2 346.4015999999999zM576 212.1600000000001L480 84H672L576 212.1600000000001zM864 84V180H960V756H192V180H288V84H143.6064C117.3144 84 96 105.3408000000001 96 132.0432000000001V803.9582399999999C96 830.49072 117.85488 852 143.6064 852H1008.3935999999998C1034.688 852 1056 830.65776 1056 803.9582399999999V132.0432000000001C1056 105.5088000000001 1034.1455999999998 84 1008.3935999999998 84H864z" />
    <glyph glyph-name="alarm-fill"
      unicode="&#xEA1A;"
      horiz-adv-x="1152" d="M575.9978400000001 -42.07272C337.4128800000001 -42.07272 143.9997600000001 151.3384799999999 143.9997600000001 389.92728C143.9997600000001 628.5132 337.4128800000001 821.9263199999999 575.9978400000001 821.9263199999999C814.58664 821.9263199999999 1007.99784 628.5132 1007.99784 389.92728C1007.99784 151.3384799999999 814.58664 -42.07272 575.9978400000001 -42.07272zM623.9978400000001 389.92728V629.9263199999999H527.9978400000001V293.92728H767.9978400000001V389.92728H623.9978400000001zM83.8533600000001 712.3672799999999L253.5592800000001 882.07272L321.4413600000001 814.1906399999999L151.7359200000001 644.4847199999999L83.8533600000001 712.3672799999999zM898.44264 882.07272L1068.14664 712.3672799999999L1000.2650400000002 644.4847199999999L830.55624 814.1906399999999L898.44264 882.07272z" />
    <glyph glyph-name="alarm-line"
      unicode="&#xEA1B;"
      horiz-adv-x="1152" d="M575.9978400000001 -42.07272C337.4128800000001 -42.07272 143.9997600000001 151.3384799999999 143.9997600000001 389.92728C143.9997600000001 628.5132 337.4128800000001 821.9263199999999 575.9978400000001 821.9263199999999C814.58664 821.9263199999999 1007.99784 628.5132 1007.99784 389.92728C1007.99784 151.3384799999999 814.58664 -42.07272 575.9978400000001 -42.07272zM575.9978400000001 53.92728C761.5658400000001 53.92728 911.99784 204.35928 911.99784 389.92728C911.99784 575.4943199999999 761.5658400000001 725.9263199999999 575.9978400000001 725.9263199999999C390.4322400000001 725.9263199999999 239.9997600000001 575.4943199999999 239.9997600000001 389.92728C239.9997600000001 204.35928 390.4322400000001 53.92728 575.9978400000001 53.92728zM623.9978400000001 389.92728H767.9978400000001V293.92728H527.9978400000001V629.9263199999999H623.9978400000001V389.92728zM83.8533600000001 712.3672799999999L253.5592800000001 882.07272L321.4413600000001 814.1906399999999L151.7359200000001 644.4847199999999L83.8533600000001 712.3672799999999zM898.44264 882.07272L1068.14664 712.3672799999999L1000.2650400000002 644.4847199999999L830.55624 814.1906399999999L898.44264 882.07272z" />
    <glyph glyph-name="alarm-warning-fill"
      unicode="&#xEA1C;"
      horiz-adv-x="1152" d="M191.99928 36V324C191.99928 536.07744 363.92184 708 576.00024 708C788.07864 708 960.00024 536.07744 960.00024 324V36H1008.00024V-60H143.99928V36H191.99928zM287.99928 324H383.99928C383.99928 430.0368 469.96056 516 576.00024 516V612C416.9412 612 287.99928 483.0576000000001 287.99928 324zM528.00024 900H624.00024V756H528.00024V900zM949.3538399999998 765.2347199999999L1017.23544 697.35216L915.41304 595.5288L847.52664 663.4113600000001L949.3538399999998 765.2347199999999zM134.76456 697.35216L202.64712 765.2347199999999L304.47048 663.4113600000001L236.58792 595.5288L134.76456 697.35216z" />
    <glyph glyph-name="alarm-warning-line"
      unicode="&#xEA1D;"
      horiz-adv-x="1152" d="M191.99928 36V324C191.99928 536.07744 363.92184 708 576.00024 708C788.07864 708 960.00024 536.07744 960.00024 324V36H1008.00024V-60H143.99928V36H191.99928zM287.99928 36H864.00024V324C864.00024 483.0576000000001 735.0578399999999 612 576.00024 612C416.9412 612 287.99928 483.0576000000001 287.99928 324V36zM528.00024 900H624.00024V756H528.00024V900zM949.3538399999998 765.2347199999999L1017.23544 697.35216L915.41304 595.5288L847.52664 663.4113600000001L949.3538399999998 765.2347199999999zM134.76456 697.35216L202.64712 765.2347199999999L304.47048 663.4113600000001L236.58792 595.5288L134.76456 697.35216zM335.99928 324C335.99928 456.5472 443.45112 564 576.00024 564V468C496.4690399999999 468 431.99928 403.5312 431.99928 324H335.99928z" />
    <glyph glyph-name="album-fill"
      unicode="&#xEA1E;"
      horiz-adv-x="1152" d="M576 900C840.96 900 1056 684.96 1056 420C1056 155.04 840.96 -60 576 -60C311.04 -60 96 155.04 96 420C96 684.96 311.04 900 576 900zM576 228C682.2384 228 768 313.7616000000001 768 420C768 526.23984 682.2384 612 576 612C469.76016 612 384 526.23984 384 420C384 313.7616000000001 469.76016 228 576 228zM576 468C602.4000000000001 468 624 446.4000000000001 624 420C624 393.5999999999999 602.4000000000001 372 576 372C549.5999999999999 372 528 393.5999999999999 528 420C528 446.4000000000001 549.5999999999999 468 576 468z" />
    <glyph glyph-name="album-line"
      unicode="&#xEA1F;"
      horiz-adv-x="1152" d="M576 36C788.0783999999999 36 960 207.9216000000001 960 420C960 632.07744 788.0783999999999 804 576 804C363.92256 804 192 632.07744 192 420C192 207.9216000000001 363.92256 36 576 36zM576 -60C310.9032 -60 96 154.9056000000001 96 420C96 685.0968 310.9032 900 576 900C841.0944 900 1056 685.0968 1056 420C1056 154.9056000000001 841.0944 -60 576 -60zM576 324C629.0208 324 672 366.9792 672 420C672 473.0208 629.0208 516 576 516C522.9792 516 480 473.0208 480 420C480 366.9792 522.9792 324 576 324zM576 228C469.96128 228 384 313.9632000000001 384 420C384 526.03872 469.96128 612 576 612C682.0368 612 768 526.03872 768 420C768 313.9632000000001 682.0368 228 576 228z" />
    <glyph glyph-name="alert-fill"
      unicode="&#xEA20;"
      horiz-adv-x="1152" d="M617.5671542917632 839.9966169954046L1074.8247542917634 47.9951769954045C1088.0823542917633 25.0367769954044 1080.2151542917632 -4.3200230045955 1057.2567542917634 -17.5728230045955C1049.9607542917634 -21.7872230045955 1041.6855542917633 -24.0048230045955 1033.2567542917634 -24.0048230045955H118.7348342917633C92.2249142917633 -24.0048230045955 70.7348342917633 -2.5152230045955 70.7348342917633 23.9951769954045C70.7348342917633 32.4239769954045 72.9524342917633 40.6991769954045 77.1653942917633 47.9951769954045L534.4263542917632 839.9966169954046C547.6839542917633 862.9550169954045 577.0359542917632 870.8207769954045 599.9943542917633 857.5660569954046C607.2951542917633 853.3530969954045 613.3527542917633 847.2935769954045 617.5671542917632 839.9966169954046zM527.9943542917633 215.9951769954045V119.9951769954045H623.9943542917633V215.9951769954045H527.9943542917633zM527.9943542917633 551.9966169954043V311.9951769954045H623.9943542917633V551.9966169954043H527.9943542917633z" />
    <glyph glyph-name="alert-line"
      unicode="&#xEA21;"
      horiz-adv-x="1152" d="M617.5671542917632 839.9966169954046L1074.8247542917634 47.9951769954045C1088.0823542917633 25.0367769954044 1080.2151542917632 -4.3200230045955 1057.2567542917634 -17.5728230045955C1049.9607542917634 -21.7872230045955 1041.6855542917633 -24.0048230045955 1033.2567542917634 -24.0048230045955H118.7348342917633C92.2249142917633 -24.0048230045955 70.7348342917633 -2.5152230045955 70.7348342917633 23.9951769954045C70.7348342917633 32.4239769954045 72.9524342917633 40.6991769954045 77.1653942917633 47.9951769954045L534.4263542917632 839.9966169954046C547.6839542917633 862.9550169954045 577.0359542917632 870.8207769954045 599.9943542917633 857.5660569954046C607.2951542917633 853.3530969954045 613.3527542917633 847.2935769954045 617.5671542917632 839.9966169954046zM201.8732342917633 71.9951769954045H950.1207542917632L575.9943542917633 719.9966169954046L201.8732342917633 71.9951769954045zM527.9943542917633 215.9951769954045H623.9943542917633V119.9951769954045H527.9943542917633V215.9951769954045zM527.9943542917633 551.9966169954043H623.9943542917633V311.9951769954045H527.9943542917633V551.9966169954043z" />
    <glyph glyph-name="aliens-fill"
      unicode="&#xEA22;"
      horiz-adv-x="1152" d="M576 912C801.3312000000001 912 984 729.3321599999999 984 504C984 192 720 -72 576 -72C432 -72 168 192 168 504C168 729.3321599999999 350.66784 912 576 912zM840 432C720.7056 432 624 335.2944 624 216C624 208.3056 624.4032 200.7072000000001 625.2096 193.1904C632.6976 192.4032000000001 640.3008 192 648 192C767.2944 192 864 288.7056 864 408C864 415.6992 863.5967999999999 423.3024000000001 862.7808 430.8144C855.2927999999999 431.5968000000001 847.6944 432 840 432zM312 432C304.30224 432 296.69808 431.5968000000001 289.188 430.7904C288.4027200000001 423.3024000000001 288 415.6992 288 408C288 288.7056 384.70656 192 504 192C511.6944 192 519.2927999999999 192.4032000000001 526.8144 193.2192C527.5968 200.7072000000001 528 208.3056 528 216C528 335.2944 431.29344 432 312 432z" />
    <glyph glyph-name="aliens-line"
      unicode="&#xEA23;"
      horiz-adv-x="1152" d="M576 912C801.3312000000001 912 984 729.3321599999999 984 504C984 192 720 -72 576 -72C432 -72 168 192 168 504C168 729.3321599999999 350.66784 912 576 912zM576 816C403.6872 816 264 676.3128 264 504C264 273.8976 463.92 24 576 24C688.08 24 888 273.8976 888 504C888 676.3128 748.3152 816 576 816zM840 480C847.6944 480 855.2927999999999 479.5968 862.7808 478.8144C863.5967999999999 471.3024 864 463.6992 864 456C864 336.7056 767.2944 240 648 240C640.3008 240 632.6976 240.4032 625.2096 241.1904000000001C624.4032 248.7072000000001 624 256.3056000000001 624 264C624 383.2944 720.7056 480 840 480zM312 480C431.29344 480 528 383.2944 528 264C528 256.3056000000001 527.5968 248.7072000000001 526.8144 241.2192C519.2927999999999 240.4032 511.6944 240 504 240C384.70656 240 288 336.7056 288 456C288 463.6992 288.4027200000001 471.3024 289.188 478.7904C296.69808 479.5968 304.30224 480 312 480z" />
    <glyph glyph-name="align-bottom"
      unicode="&#xEA24;"
      horiz-adv-x="1152" d="M144 84H1008V-12H144V84zM384 372H528L336 180L144 372H288V852H384V372zM864 372H1008L816 180L624 372H768V852H864V372z" />
    <glyph glyph-name="align-center"
      unicode="&#xEA25;"
      horiz-adv-x="1152" d="M144 828H1008V732H144V828zM240 108H912V12H240V108zM144 348H1008V252H144V348zM240 588H912V492H240V588z" />
    <glyph glyph-name="align-justify"
      unicode="&#xEA26;"
      horiz-adv-x="1152" d="M144 828H1008V732H144V828zM144 108H1008V12H144V108zM144 348H1008V252H144V348zM144 588H1008V492H144V588z" />
    <glyph glyph-name="align-left"
      unicode="&#xEA27;"
      horiz-adv-x="1152" d="M144 828H1008V732H144V828zM144 108H816V12H144V108zM144 348H1008V252H144V348zM144 588H816V492H144V588z" />
    <glyph glyph-name="align-right"
      unicode="&#xEA28;"
      horiz-adv-x="1152" d="M144 828H1008V732H144V828zM336 108H1008V12H336V108zM144 348H1008V252H144V348zM336 588H1008V492H336V588z" />
    <glyph glyph-name="align-top"
      unicode="&#xEA29;"
      horiz-adv-x="1152" d="M144 852H1008V756H144V852zM384 468V-12H288V468H144L336 660L528 468H384zM864 468V-12H768V468H624L816 660L1008 468H864z" />
    <glyph glyph-name="align-vertically"
      unicode="&#xEA2A;"
      horiz-adv-x="1152" d="M144 468H1008V372H144V468zM864 132V-12H768V132H624L816 324L1008 132H864zM384 132V-12H288V132H144L336 324L528 132H384zM864 708H1008L816 516L624 708H768V852H864V708zM384 708H528L336 516L144 708H288V852H384V708z" />
    <glyph glyph-name="alipay-fill"
      unicode="&#xEA2B;"
      horiz-adv-x="1152" d="M1028.2752 258.8352C844.4592 314.1696 737.6016 347.1552000000001 707.712 357.7920000000001C734.976 404.64 756.864 458.4000000000001 771.072 517.1519999999999H614.4000000000001V570.144H806.4000000000001V602.784H614.4000000000001V691.488H540.672C527.232 691.488 525.696 679.5840000000001 525.696 679.5840000000001V603.168H345.6V570.528H525.696V517.5360000000001H378.24V487.968H676.992C666.24 450.72 651.648 415.3920000000001 634.3679999999999 383.52C566.784 405.7920000000001 529.1519999999999 421.152 446.592 428.832C290.304 443.808 254.2080000000001 357.7920000000001 248.448 305.184C240 224.928 311.04 159.648 417.024 159.648C523.008 159.648 593.664 208.8000000000001 660.864 290.208C716.8607999999999 263.4287999999999 821.0831999999999 216.9936 973.5312 150.9024C887.208 23.6304 741.3696 -60 576 -60C310.9032 -60 96 154.9056000000001 96 420C96 685.0968 310.9032 900 576 900C841.0944 900 1056 685.0968 1056 420C1056 363.4656 1046.2271999999998 309.2112 1028.2752 258.8352zM404.736 210.336C292.608 210.336 274.944 281.376 280.704 310.944C286.464 340.512 319.104 378.9120000000001 381.6960000000001 378.9120000000001C453.504 378.9120000000001 517.6320000000001 360.48 594.816 323.232C540.288 252.192 473.856 210.336 404.736 210.336z" />
    <glyph glyph-name="alipay-line"
      unicode="&#xEA2C;"
      horiz-adv-x="1152" d="M883.5792000000001 190.0656000000001C779.2944 235.6896 705.0576000000001 269.0736000000001 660.864 290.208C593.664 208.8000000000001 523.008 159.648 417.024 159.648C311.04 159.648 240 224.928 248.448 305.184C254.2080000000001 357.7920000000001 290.304 443.808 446.592 428.832C529.1519999999999 421.152 566.784 405.7920000000001 634.3679999999999 383.52C651.648 415.3920000000001 666.24 450.72 676.992 487.968H378.24V517.5360000000001H525.696V570.528H345.6V603.168H525.696V679.5840000000001C525.696 679.5840000000001 527.232 691.488 540.672 691.488H614.4000000000001V602.784H806.4000000000001V570.144H614.4000000000001V517.1519999999999H771.072C756.864 458.4000000000001 734.976 404.64 707.712 357.7920000000001C732.2064 349.0752 808.368 325.3536000000001 936.2064 286.6320000000001C951.5952 328.176 960 373.1040000000001 960 420C960 632.07744 788.0783999999999 804 576 804C363.92256 804 192 632.07744 192 420C192 207.9216000000001 363.92256 36 576 36C701.8416 36 813.5423999999999 96.5328 883.5792000000001 190.0656000000001zM576 -60C310.9032 -60 96 154.9056000000001 96 420C96 685.0968 310.9032 900 576 900C841.0944 900 1056 685.0968 1056 420C1056 154.9056000000001 841.0944 -60 576 -60zM404.736 210.336C473.856 210.336 540.288 252.192 594.816 323.232C517.6320000000001 360.48 453.504 378.9120000000001 381.6960000000001 378.9120000000001C319.104 378.9120000000001 286.464 340.512 280.704 310.944C274.944 281.376 292.608 210.336 404.736 210.336z" />
    <glyph glyph-name="amazon-fill"
      unicode="&#xEA2D;"
      horiz-adv-x="1152" d="M1055.9279446151588 145.3920000000001C1055.9279446151588 110.4576 1036.4831446151588 43.2624000000001 992.822344615159 6.3407999999999C984.0815446151586 -0.3984 975.3407446151588 3.4271999999999 979.1711446151588 13.2192C991.8719446151588 44.3136 1021.0031446151588 116.2944 1007.3519446151588 132.8256C997.6991446151588 145.3920000000001 957.8639446151587 144.4752 923.889544615159 141.5616C908.3759446151586 139.5983999999999 894.7583446151586 138.6479999999999 884.1887446151588 136.5504000000001C874.4015446151589 135.7392 872.4047446151587 144.3408 882.191944615159 151.0799999999999C894.7583446151586 159.9552000000001 908.3759446151586 166.6992 923.9903446151588 171.6096C979.1711446151588 188.1408 1042.9631446151589 178.1904 1052.0975446151588 167.6448C1053.8639446151587 165.6048000000001 1055.9279446151588 159.9552000000001 1055.9279446151588 145.3920000000001zM963.6911446151586 83.232C951.1247446151588 73.5456 937.507144615159 64.704 923.889544615159 56.88C821.9999446151587 -4.3632 690.0623446151587 -36.4032 575.4719446151589 -36.4032C391.0343446151588 -36.4032 226.0391446151588 31.6128000000001 100.8786646151588 145.3920000000001C90.1410646151588 154.1279999999999 99.0157846151588 166.8336000000001 111.5826646151588 159.9552000000001C246.4305046151588 81.2352000000001 413.3903446151588 33.6096 586.2095446151588 33.6096C694.9775446151589 33.6096 812.2079446151588 53.9664 923.889544615159 97.7664C931.6799446151588 100.6799999999998 940.4207446151588 104.6400000000001 948.0767446151588 107.4192000000001C965.6879446151588 115.3775999999999 981.1679446151588 95.8032000000001 963.6911446151586 83.232zM667.5167446151588 612.6504C667.5551446151587 662.6759999999999 669.5375446151588 692.0976 652.9631446151589 717.35088C638.2559446151588 738.1243199999999 612.9887446151588 750.58176 577.6799446151588 748.6300799999999C539.3663446151588 746.5118399999999 498.2351446151587 721.3943999999999 487.7279446151587 675.36768C485.7071446151588 664.8619199999999 479.5223446151588 654.4752 466.7965846151588 652.1759999999999L349.8858646151588 667.04256C341.5209046151588 669.02448 328.8345046151588 675.36768 332.9975446151588 692.0976C358.0919446151588 824.1916799999999 470.9985046151588 870.21888 577.6799446151588 876.4032H602.7743446151587C661.3295446151587 876.4032 736.5743446151587 859.67328 784.7423446151588 815.7081599999999C843.1391446151588 761.1974399999999 836.9135446151588 687.93504 836.9135446151588 608.32944V419.8608C836.9135446151588 363.3263999999999 859.8287446151587 338.2752 882.9023446151587 308.8176C889.1279446151586 298.3104 891.2687446151588 285.9024 880.7615446151588 277.3776000000001C857.6879446151588 256.4880000000001 813.8399446151586 218.8656000000001 788.7455446151589 197.9712C780.3839446151587 191.592 765.3071446151587 190.9104 759.4895446151588 195.7919999999999C722.5391446151586 226.7904 713.5007446151587 243.9600000000001 690.5855446151588 275.4C650.7839446151588 233.5728000000001 617.3231446151588 210.4992 577.5215446151587 197.9712C552.4271446151588 191.592 525.3503446151587 187.584 491.8895446151587 187.584C391.5517846151588 187.584 312.1050646151588 250.1424 312.1050646151588 373.872C312.1050646151588 472.1904 364.4351446151588 539.0784 441.7017046151588 570.70704C518.9663446151587 602.3376 631.2959446151588 612.4718399999999 667.5167446151588 612.6504zM644.6015446151587 363.4848C669.5375446151588 405.312 667.5167446151588 439.6224 667.5167446151588 516.3552C636.2351446151588 516.3552 604.7999446151587 514.1759999999999 577.6799446151588 507.8304000000001C527.5295446151588 493.2816 487.7279446151587 461.6879999999999 487.7279446151587 394.7664C487.7279446151587 342.4368 514.9631446151589 306.8352 560.9519446151587 306.8352C567.2927446151589 306.8352 572.8463446151588 307.6271999999999 577.6799446151588 308.9759999999999C609.8063446151589 317.9423999999999 629.8943446151588 334.0704 644.6015446151587 363.4848z" />
    <glyph glyph-name="amazon-line"
      unicode="&#xEA2E;"
      horiz-adv-x="1152" d="M737.3518873502312 340.2431999999999C684.2110873502311 262.5504 606.3790873502312 225.8063999999999 515.3278873502311 225.8063999999999C404.7306073502312 225.8063999999999 310.0606873502312 310.896 323.6725273502312 423.7487999999999C338.7733273502312 548.952 435.9651673502312 602.8238399999999 597.662287350231 622.6171199999999C626.5150873502312 626.1489599999999 638.4622873502312 627.14208 700.7134873502312 631.7534399999998C703.0510873502312 631.9267199999998 705.2542873502312 632.0908799999999 707.3422873502311 632.2487999999998C707.3326873502313 635.6639999999999 707.3278873502311 639.1003199999999 707.3278873502311 642.5568C707.3278873502311 728.75952 656.0686873502311 787.6031999999999 587.3278873502311 787.6031999999999C518.3566873502311 787.6031999999999 470.1886873502312 751.7303999999999 440.6984473502311 666.33552L349.9563673502312 697.6703999999999C392.5525273502312 821.0241599999998 476.5822873502312 883.6031999999999 587.3278873502311 883.6031999999999C712.2574873502313 883.6031999999999 803.3278873502311 779.05968 803.3278873502311 642.5568C803.3278873502311 515.4143999999999 811.1662873502312 414.2832 826.5262873502313 375.7919999999998C843.614287350231 332.9759999999999 849.8446873502312 322.2 868.9438873502311 298.3871999999999L794.0542873502311 238.3248C768.9406873502312 269.6351999999999 757.929487350231 288.6719999999999 737.3614873502311 340.2095999999999L737.3518873502312 340.2431999999999zM1007.6398873502312 55.8335999999998C994.641487350231 46.2335999999999 972.0478873502312 51.9407999999999 982.2766873502312 76.9775999999998C994.9774873502312 108.0719999999998 1008.5182873502312 144.5423999999999 994.867087350231 161.0736C984.7678873502311 173.304 972.422287350231 179.3903999999999 945.551887350231 179.3903999999999C923.4910873502312 179.3903999999999 912.4126873502312 176.5391999999998 897.7966873502312 175.5648C887.9950873502312 174.9119999999999 883.7086873502312 189.8256 893.4142873502312 196.6799999999998C905.9806873502312 205.5551999999999 919.5310873502312 212.5104 935.2126873502312 217.2095999999999C990.3934873502312 233.736 1055.4382873502311 224.6783999999999 1063.319887350231 213.2448C1080.859087350231 187.7999999999999 1053.8014873502311 89.9231999999998 1007.6398873502312 55.8335999999998zM950.913487350231 107.8847999999999C938.3470873502312 95.6159999999999 924.7294873502312 84.4223999999998 911.1118873502312 74.5151999999999C809.2222873502312 -3.0288000000002 677.2846873502313 -43.6031999999999 562.6942873502312 -43.6031999999999C378.2566873502312 -43.6031999999999 213.2614873502312 42.5184 88.1010073502312 186.5903999999998C77.3634073502312 197.6544 86.2381273502312 213.7392 98.8050073502312 205.0320000000001C233.6528473502312 105.3551999999999 400.6126873502312 45.0479999999999 573.4318873502311 45.0479999999999C682.1998873502312 45.0479999999999 799.4302873502311 70.8287999999999 911.1118873502312 126.2831999999999C918.902287350231 129.9744 927.643087350231 134.9903999999998 935.299087350231 138.5087999999998C952.9102873502312 148.5887999999999 968.3902873502312 123.7967999999999 950.913487350231 107.8847999999999zM707.8078873502311 536.0159999999998C647.3998873502312 531.5423999999999 635.9998873502311 530.5919999999999 609.326287350231 527.3279999999999C486.7918873502312 512.3279999999999 427.0582873502312 479.2175999999998 418.9818073502311 412.2575999999999C412.9405273502312 362.1695999999999 457.8483673502312 321.8064 515.3278873502311 321.8064C613.1998873502312 321.8064 684.1534873502312 380.736 708.3838873502311 536.0591999999999C708.1918873502311 536.0447999999999 707.9998873502311 536.0303999999999 707.8078873502311 536.0159999999998z" />
    <glyph glyph-name="anchor-fill"
      unicode="&#xEA2F;"
      horiz-adv-x="1152" d="M624 522.0489600000001V39.4559999999999C797.6976 61.2240000000001 935.3712 199.5695999999999 957.0288 374.1216H816L993.8016 660C1033.392 589.85664 1056 508.7616 1056 422.3568C1056 155.9567999999999 841.0944 -60 576 -60C310.9032 -60 96 155.9567999999999 96 422.3568C96 508.7616 118.60656 589.85664 158.19936 660L336 374.1216H194.97072C216.63072 199.5695999999999 354.30144 61.2240000000001 528 39.4559999999999V522.0489600000001C445.18896 543.36288 384 618.53568 384 708C384 814.03872 469.96128 900 576 900C682.0368 900 768 814.03872 768 708C768 618.53568 706.8095999999999 543.36288 624 522.0489600000001zM576 612C629.0208 612 672 654.98064 672 708C672 761.01936 629.0208 804 576 804C522.9792 804 480 761.01936 480 708C480 654.98064 522.9792 612 576 612z" />
    <glyph glyph-name="anchor-line"
      unicode="&#xEA30;"
      horiz-adv-x="1152" d="M98.37024 468H336V372H194.97072C216.63072 198.3024 354.30144 60.6288000000001 528 38.9712000000001V522.0489600000001C445.18896 543.36288 384 618.53568 384 708C384 814.03872 469.96128 900 576 900C682.0368 900 768 814.03872 768 708C768 618.53568 706.8095999999999 543.36288 624 522.0489600000001V38.9712000000001C797.6976 60.6288000000001 935.3712 198.3024 957.0288 372H816V468H1053.6288C1055.1984 452.2128 1056 436.2000000000001 1056 420C1056 154.9056000000001 841.0944 -60 576 -60C310.9032 -60 96 154.9056000000001 96 420C96 436.2000000000001 96.80256 452.2128 98.37024 468zM576 612C629.0208 612 672 654.98064 672 708C672 761.01936 629.0208 804 576 804C522.9792 804 480 761.01936 480 708C480 654.98064 522.9792 612 576 612z" />
    <glyph glyph-name="ancient-gate-fill"
      unicode="&#xEA31;"
      horiz-adv-x="1152" d="M334.2768 852H817.7232000000001C829.6512 769.344 900.4896000000001 708 984 708C999.9456 708 1015.8048000000002 710.26992 1031.112 714.74112C1022.2656 629.09472 950.1024 564 864 564H288C201.89856 564 129.7344 629.09472 120.88896 714.74064C136.19328 710.26992 152.05584 708 168 708C251.5128 708 322.3464 769.344 334.2768 852zM1102.9728 462.6528000000001C1082.0256 450.7632 1057.8048000000001 443.976 1032 443.976C978.7008 443.976 932.1648 472.9344 907.2624 515.976H244.7352C219.83712 472.9344 173.30016 443.976 120 443.976C94.19376 443.976 69.97344 450.7632 49.02624 462.6528000000001C48.348 456.5232 48 450.288 48 443.976C48 376.9584 87.24144 319.1088 144 292.1424V-12H432V84C432 163.5312 496.4736 228 576 228C655.5312 228 720 163.5312 720 84V-12H1008V292.1424C1064.76 319.1088 1104 376.9584 1104 443.976C1104 450.288 1103.6496 456.5232 1102.9728 462.6528000000001z" />
    <glyph glyph-name="ancient-gate-line"
      unicode="&#xEA32;"
      horiz-adv-x="1152" d="M334.2753600000001 852H817.7184C829.6512 769.34352 900.4848000000001 708 984 708C999.9408 708 1015.8048000000002 710.26944 1031.1072 714.74064C1022.2656 629.09472 950.0976 564 864 564H287.99856C201.89712 564 129.73344 629.09472 120.88752 714.74064C136.19184 710.26944 152.05488 708 167.99856 708C251.51136 708 322.34496 769.34352 334.2753600000001 852zM811.1712 676.43472C784.2767999999999 699.7248 763.2959999999999 726.24672 748.2288000000001 756H403.76832C388.70064 726.24672 367.72032 699.7248 340.82736 676.43472C334.0368000000001 670.55376 327.096 665.07552 320.00544 660H831.9888000000001C824.904 665.07552 817.9632 670.55376 811.1712 676.43472zM1032 443.976C1057.8048000000001 443.976 1082.0256 450.7632 1102.9728 462.6528000000001C1103.6496 456.5232 1104 450.288 1104 443.976C1104 376.9584 1064.76 319.1088 1008 292.1424V-12H672V84C672 137.0208 629.0208 180 576 180C522.9792 180 480 137.0208 480 84V-12H144V292.1424C87.24144 319.1088 48 376.9584 48 443.976C48 450.288 48.348 456.5232 49.02624 462.6528000000001C69.97344 450.7632 94.19376 443.976 120 443.976C173.30016 443.976 219.83712 472.9344 244.7352 515.976H907.2624C932.1648 472.9344 978.7008 443.976 1032 443.976zM910.2336 381.1344000000001C891.6288000000001 392.1024 875.0208 405.048 860.4096 419.976H291.58992C276.98016 405.048 260.37264 392.1024 241.76784 381.1344000000001C232.032 375.3936 222.08784 370.4015999999999 211.93536 366.1536L240 352.8192V84H384C384 137.0208 402.74496 182.2752000000001 440.23536 219.7631999999999C477.72576 257.2560000000001 522.9792 276 576 276C629.0208 276 674.2752 257.2560000000001 711.7632 219.7631999999999C749.2560000000001 182.2752000000001 768 137.0208 768 84H912V352.8192L940.0656000000002 366.1536C929.9136 370.4015999999999 919.968 375.3936 910.2336 381.1344000000001z" />
    <glyph glyph-name="ancient-pavilion-fill"
      unicode="&#xEA33;"
      horiz-adv-x="1152" d="M72.75888 593.94576C80.6356800000001 500.20224 148.2792000000001 422.3352 240.0004800000001 401.4312000000001V59.9688H144.0004800000001V-36.0312H1008.0043200000002V59.9688H912.0043200000002V401.4312000000001C1003.72272 422.3352 1071.36912 500.20224 1079.24112 593.94576C1055.70192 590.00976 1031.8699199999999 588.0312 1008.0043200000002 588.0312C824.9275200000001 588.0312 661.7323200000001 703.42704 600.70992 876.0312H551.29392C490.2715200000001 703.42704 327.07488 588.0312 144.0004800000001 588.0312C120.1310400000001 588.0312 96.30192 590.00976 72.75888 593.94576zM816.0043200000001 59.9688H336.0004800000001V396.0312H816.0043200000001V59.9688z" />
    <glyph glyph-name="ancient-pavilion-line"
      unicode="&#xEA34;"
      horiz-adv-x="1152" d="M72.75888 593.94576C80.6356800000001 500.20224 148.2792000000001 422.3352 240.0004800000001 401.4312000000001V59.9688H144.0004800000001V-36.0312H1008.0043200000002V59.9688H912.0043200000002V401.4312000000001C1003.72272 422.3352 1071.36912 500.20224 1079.24112 593.94576C1055.70192 590.00976 1031.8699199999999 588.0312 1008.0043200000002 588.0312C824.9275200000001 588.0312 661.7323200000001 703.42704 600.70992 876.0312H551.29392C490.2715200000001 703.42704 327.07488 588.0312 144.0004800000001 588.0312C120.1310400000001 588.0312 96.30192 590.00976 72.75888 593.94576zM816.0043200000001 59.9688H336.0004800000001V396.0312H816.0043200000001V59.9688zM890.66832 495.03168L877.50192 492.0312H274.4985600000001L261.3340800000001 495.03168C254.8027200000001 496.52016 248.5459200000001 498.46608 242.5627200000001 500.86944C316.3233600000001 514.48608 385.0828800000001 543.8366400000001 448.8417600000001 588.92112C499.55952 624.7843200000001 541.9483200000001 666.94896 576.0043200000001 715.416C610.0555200000001 666.94896 652.4443200000001 624.7843200000001 703.16112 588.92112C766.91952 543.8366400000001 835.67952 514.48608 909.44112 500.86944C903.45552 498.46608 897.1963200000001 496.52016 890.66832 495.03168z" />
    <glyph glyph-name="android-fill"
      unicode="&#xEA35;"
      horiz-adv-x="1152" d="M306.35088 805.5312C380.25552 864.64944 473.99952 900 576 900C678 900 771.7439999999999 864.64944 845.6496 805.5312L915.4128 875.29344L983.2944 807.4113600000001L913.5312 737.64912C972.648 663.7444800000001 1008 570.0004799999999 1008 468V420H144V468C144 570.0004799999999 179.35056 663.7444800000001 238.4688 737.64912L168.70656 807.4113600000001L236.58864 875.29344L306.35088 805.5312zM144 324H1008V-12C1008 -38.5103999999999 986.5103999999998 -60 960 -60H192C165.49056 -60 144 -38.5103999999999 144 -12V324zM432 564C458.50944 564 480 585.49056 480 612C480 638.50944 458.50944 660 432 660C405.49056 660 384 638.50944 384 612C384 585.49056 405.49056 564 432 564zM720 564C746.5104 564 768 585.49056 768 612C768 638.50944 746.5104 660 720 660C693.4896 660 672 638.50944 672 612C672 585.49056 693.4896 564 720 564z" />
    <glyph glyph-name="android-line"
      unicode="&#xEA36;"
      horiz-adv-x="1152" d="M912 372H240V36H912V372zM912 468C912 653.5675200000001 761.568 804 576 804C390.43248 804 240 653.5675200000001 240 468H912zM306.35088 805.5312C380.25552 864.64944 473.99952 900 576 900C678 900 771.7439999999999 864.64944 845.6496 805.5312L915.4128 875.29344L983.2944 807.4113600000001L913.5312 737.64912C972.648 663.7444800000001 1008 570.0004799999999 1008 468V-12C1008 -38.5103999999999 986.5103999999998 -60 960 -60H192C165.49056 -60 144 -38.5103999999999 144 -12V468C144 570.0004799999999 179.35056 663.7444800000001 238.4688 737.64912L168.70656 807.4113600000001L236.58864 875.29344L306.35088 805.5312zM432 564C405.49056 564 384 585.49056 384 612C384 638.50944 405.49056 660 432 660C458.50944 660 480 638.50944 480 612C480 585.49056 458.50944 564 432 564zM720 564C693.4896 564 672 585.49056 672 612C672 638.50944 693.4896 660 720 660C746.5104 660 768 638.50944 768 612C768 585.49056 746.5104 564 720 564z" />
    <glyph glyph-name="angularjs-fill"
      unicode="&#xEA37;"
      horiz-adv-x="1152" d="M576 900L1022.4 740.64L954.312 149.76L576 -60L197.68656 149.76L129.6 740.64L576 900zM576 793.9200000000001L296.94 167.52H400.98816L457.08768 307.6800000000001H693.9552L750.0528 167.52H854.1024000000001L576 793.9200000000001zM657.5136 394.0800000000001H494.4864L576 590.4000000000001L657.5136 394.0800000000001z" />
    <glyph glyph-name="angularjs-line"
      unicode="&#xEA38;"
      horiz-adv-x="1152" d="M841.1184 196.7664L864.5952 209.784L918.3024 675.86832L576 798.06624L233.6985600000001 675.86832L287.40528 209.784L310.15008 197.1744000000001L576 793.9200000000001L841.1184 196.7664zM788.3712000000002 167.52H750.0528L693.9552 307.6800000000001H457.08768L400.98816 167.52H363.6297600000001L576 49.7711999999999L788.3712000000002 167.52zM576 900L1022.4 740.64L954.312 149.76L576 -60L197.68656 149.76L129.6 740.64L576 900zM657.5136 394.0800000000001L576 590.4000000000001L494.4864 394.0800000000001H657.5136z" />
    <glyph glyph-name="anticlockwise-2-fill"
      unicode="&#xEA39;"
      horiz-adv-x="1152" d="M672 780H768C900.5472 780 1008 672.54816 1008 540V348H912V540C912 619.5288 847.5312 684 768 684H672V540L432 732L672 924V780zM720 444V-36C720 -62.5103999999999 698.5104 -84 672 -84H192C165.49056 -84 144 -62.5103999999999 144 -36V444C144 470.5104 165.49056 492 192 492H672C698.5104 492 720 470.5104 720 444z" />
    <glyph glyph-name="anticlockwise-2-line"
      unicode="&#xEA3A;"
      horiz-adv-x="1152" d="M643.8815999999999 678.177696L731.6448 590.4130560000001L663.7632 522.5304959999999L460.11792 726.177696L663.7632 929.824224L731.6448 861.9418559999999L643.8815999999999 774.177696H768C900.5472 774.177696 1008 666.725856 1008 534.177696V342.175776H912V534.177696C912 613.706496 847.5312 678.177696 768 678.177696H643.8815999999999zM720 438.175776V-41.824224C720 -68.329824 698.5104 -89.824224 672 -89.824224H192C165.49056 -89.824224 144 -68.329824 144 -41.824224V438.175776C144 464.686176 165.49056 486.177696 192 486.177696H672C698.5104 486.177696 720 464.686176 720 438.175776zM624 390.175776H240V6.175776H624V390.175776z" />
    <glyph glyph-name="anticlockwise-fill"
      unicode="&#xEA3B;"
      horiz-adv-x="1152" d="M312 516H456L264 276L72 516H216V612C216 744.54816 323.45184 852 456 852H648V756H456C376.4712 756 312 691.5288 312 612V516zM552 564H1032C1058.5104 564 1080 542.50944 1080 516V36C1080 9.4896000000001 1058.5104 -12 1032 -12H552C525.4896 -12 504 9.4896000000001 504 36V516C504 542.50944 525.4896 564 552 564z" />
    <glyph glyph-name="anticlockwise-line"
      unicode="&#xEA3C;"
      horiz-adv-x="1152" d="M557.8245120000001 564H1037.824512C1064.330112 564 1085.824512 542.50944 1085.824512 516V36C1085.824512 9.4896000000001 1064.330112 -12 1037.824512 -12H557.8245120000001C531.314112 -12 509.8245120000001 9.4896000000001 509.8245120000001 36V516C509.8245120000001 542.50944 531.314112 564 557.8245120000001 564zM605.8245120000001 468V84H989.824512V468H605.8245120000001zM317.8221120000001 487.8815999999999L405.5867520000001 575.64672L473.4688320000001 507.7632L269.8221120000001 304.1184000000001L66.1754880000001 507.7632L134.0579520000001 575.64672L221.8221120000001 487.8815999999999V612C221.8221120000001 744.54816 329.2739520000001 852 461.8221120000001 852H653.8245120000001V756H461.8221120000001C382.2933120000001 756 317.8221120000001 691.5288 317.8221120000001 612V487.8815999999999z" />
    <glyph glyph-name="app-store-fill"
      unicode="&#xEA3D;"
      horiz-adv-x="1152" d="M576 900C841.0944 900 1056 685.0968 1056 420C1056 154.9056000000001 841.0944 -60 576 -60C310.9032 -60 96 154.9056000000001 96 420C96 685.0968 310.9032 900 576 900zM423.48384 259.5504C404.54592 282.4176 380.9904 290.6064 352.51248 283.9680000000001L345.2904 282L317.0323200000001 233.2272000000001C306.19344 214.2575999999999 312.5808 190.0656000000001 331.54848 179.2271999999999C348.93552 169.2912000000001 370.7136000000001 173.8272000000001 382.57104 189.2640000000001L385.5484800000001 193.7424000000001L423.48384 259.5504zM634.0656 580.2580800000001C610.6464 560.90304 587.0304 503.6111999999999 620.1312 446.5152000000001L766.0656 193.7424000000001C777.096 174.7728000000001 801.096 168.3888 820.0656000000001 179.2271999999999C837.4512 189.3408000000001 844.2672 210.3504 836.9328 228.3888000000001L834.5808 233.2272000000001L796.0656000000001 300H853.1616C875.0304000000001 300 892.6464000000001 317.6112 892.6464000000001 339.4848C892.6464000000001 359.6736 877.6368 376.2336 858.1248 378.6624L853.1616 378.9696H750.3888000000001L645.12 561.24432L634.0656 580.2580800000001zM647.4192 726.38688C630.0336 736.3224 608.2560000000001 731.78352 596.3951999999999 716.34816L593.4192 711.8712L575.808 681.48384L558.5808 711.8712C547.5504 730.83888 523.5504 737.22576 504.5808 726.38688C487.1952 716.27424 480.3792 695.26464 487.7088 677.22336L490.0656 672.38688L530.3232 602.51616L401.4192 379.1616H300.77424C278.9030400000001 379.1616 261.2904 361.5504 261.2904 339.6768C261.2904 319.4880000000001 276.2976 302.928 295.80864 300.4992L300.77424 300.192H659.808C676.1712 330.9024000000001 656.8992 374.5344 620.9136000000001 378.8208L615.096 379.1616H492.5808L661.9344 672.38688C672.7728 691.3550399999999 666.3888000000001 715.5484799999999 647.4192 726.38688z" />
    <glyph glyph-name="app-store-line"
      unicode="&#xEA3E;"
      horiz-adv-x="1152" d="M576 900C841.0944 900 1056 685.0968 1056 420C1056 154.9056000000001 841.0944 -60 576 -60C310.9032 -60 96 154.9056000000001 96 420C96 685.0968 310.9032 900 576 900zM576 804C363.92256 804 192 632.07744 192 420C192 207.9216000000001 363.92256 36 576 36C788.0783999999999 36 960 207.9216000000001 960 420C960 632.07744 788.0783999999999 804 576 804zM423.48384 259.5504L385.5484800000001 193.7424000000001C374.7096 174.7728000000001 350.51616 168.3888 331.54848 179.2271999999999C312.5808 190.0656000000001 306.19344 214.2575999999999 317.0323200000001 233.2272000000001L345.2904 282C377.0323200000001 291.8688 402.9676800000001 284.3232000000001 423.48384 259.5504zM634.0656 580.2580800000001L750.3888000000001 378.9696H853.1616C875.0304000000001 378.9696 892.6464000000001 361.3536000000001 892.6464000000001 339.4848C892.6464000000001 317.6112 875.0304000000001 300 853.1616 300H796.0656000000001L834.5808 233.2272000000001C845.4192 214.2575999999999 839.0304000000001 190.2575999999999 820.0656000000001 179.2271999999999C801.096 168.3888 777.096 174.7728000000001 766.0656 193.7424000000001L620.1312 446.5152000000001C587.0304 503.6111999999999 610.6464 560.90304 634.0656 580.2580800000001zM647.4192 726.38688C666.3888000000001 715.5484799999999 672.7728 691.3550399999999 661.9344 672.38688L492.5808 379.1616H615.096C654.7728 379.1616 677.0304 332.5152000000001 659.808 300.192H300.77424C278.9030400000001 300.192 261.2904 317.808 261.2904 339.6768C261.2904 361.5504 278.9030400000001 379.1616 300.77424 379.1616H401.4192L530.3232 602.51616L490.0656 672.38688C479.22576 691.3550399999999 485.6111999999999 715.3550399999999 504.5808 726.38688C523.5504 737.22576 547.5504 730.83888 558.5808 711.8712L575.808 681.48384L593.4192 711.8712C604.2575999999999 730.83888 628.4496 737.22576 647.4192 726.38688z" />
    <glyph glyph-name="apple-fill"
      unicode="&#xEA3F;"
      horiz-adv-x="1152" d="M582.7535503838105 646.3946895922544C540.7055503838105 646.3946895922544 475.6165903838104 694.2026895922544 407.0725903838105 692.4746895922544C316.6405903838105 691.3226895922544 233.6965903838104 640.0586895922544 187.0405903838105 558.8426895922544C93.1525903838104 395.8346895922544 162.8485903838104 155.0666895922543 254.4325903838105 22.5866895922544C299.3605903838105 -41.9253104077457 352.3525903838104 -114.5013104077457 422.6245903838104 -112.1973104077456C490.0165903838104 -109.3173104077457 515.3615503838105 -68.4213104077455 597.1535503838104 -68.4213104077455C678.3695503838105 -68.4213104077455 701.4095503838105 -112.1973104077456 772.8335503838105 -110.4693104077457C845.4095503838105 -109.3173104077457 891.4895503838104 -44.8053104077455 935.8415503838104 20.2826895922543C987.1055503838104 95.1626895922544 1008.4175503838106 167.7386895922545 1009.5695503838106 171.7706895922545C1007.8415503838104 172.3466895922545 868.4495503838104 225.9146895922544 866.7215503838106 387.1946895922545C865.5695503838106 521.9786895922543 976.7375503838103 586.4906895922544 981.9215503838104 589.3706895922544C918.5615503838106 682.1066895922544 821.2175503838105 692.4746895922544 787.2335503838106 694.7786895922544C698.5295503838104 701.6906895922543 624.2255503838105 646.3946895922544 582.7535503838105 646.3946895922544zM732.5135503838105 782.3306895922544C769.9535503838104 827.2586895922544 794.7215503838106 890.0426895922544 787.8095503838103 952.2507855922544C734.2415503838104 949.9467855922544 669.7295503838104 916.5386895922544 631.1375503838105 871.6106895922544C596.5775503838104 831.8666895922544 566.6255503838104 767.9306895922543 574.6895503838105 706.8746895922543C634.0175503838104 702.2666895922544 695.0735503838105 737.4026895922543 732.5135503838105 782.3306895922544z" />
    <glyph glyph-name="apple-line"
      unicode="&#xEA40;"
      horiz-adv-x="1152" d="M779.7743503838104 599.0690895922544C757.0847503838104 600.8369295922544 732.7055503838104 595.4014095922544 695.3759503838104 581.1775695922544C698.5103503838104 582.3727695922544 659.7503503838103 567.2066895922544 648.8831503838104 563.4127695922544C624.8015503838104 555.0050895922544 604.9775503838104 550.3946895922544 582.7535503838104 550.3946895922544C560.7551503838104 550.3946895922544 540.4703503838103 554.7895695922543 517.2047503838104 562.6418895922543C509.7455503838104 565.1580495922544 502.2460303838104 567.9425295922545 492.9661903838104 571.5665295922544C488.9869903838104 573.1207695922544 474.5889103838103 578.8351695922544 471.4415503838104 580.0678095922543C440.3308303838104 592.2516495922544 422.8242703838104 596.8414095922544 408.2951503838104 596.4823695922544C352.9708303838104 595.7777295922544 300.6177103838104 563.8289295922543 270.2284303838104 510.9290895922544C208.2081103838104 403.2506895922544 242.5501903838104 208.5962895922544 333.2106703838104 77.4506895922544C381.4799503838104 8.1386895922543 407.9001103838105 -16.6293104077456 418.5258703838104 -16.2885104077455C429.1967503838104 -15.8277104077456 437.0433103838104 -13.5717104077455 456.1425103838104 -5.4741104077457C459.9431503838104 -3.8565104077455 459.9431503838104 -3.8565104077455 464.1263503838104 -2.0709104077456C512.3999503838104 18.4970895922544 546.1967503838104 27.5786895922544 597.1535503838104 27.5786895922544C646.1615503838104 27.5786895922544 678.8927503838104 18.6602895922543 725.2271503838105 -1.3125104077457C729.4799503838104 -3.1509104077456 729.4799503838104 -3.1509104077456 733.2959503838104 -4.7925104077456C752.3855503838104 -12.9717104077456 759.2735503838104 -14.7669104077456 771.3071503838104 -14.4789104077456C788.4671503838103 -14.2101104077456 809.6447503838104 5.5658895922543 856.6271503838104 74.5130895922545C869.4911503838103 93.3050895922543 880.8623503838104 113.0522895922543 890.7263503838104 133.0442895922545C884.3807503838103 138.2810895922544 878.0783503838104 143.8490895922544 871.9103503838104 149.7242895922543C810.0431503838104 208.6922895922544 771.7775503838103 288.1946895922545 770.7263503838103 386.3738895922544C770.0591503838103 464.1530895922543 795.5039503838103 531.5359695922543 838.3823503838104 587.0666895922544C820.6367503838104 593.9681295922544 801.0671503838104 597.6233295922543 779.7743503838104 599.0690895922544zM787.2335503838104 694.7786895922544C821.2175503838104 692.4746895922544 918.5615503838104 682.1066895922544 981.9215503838104 589.3706895922544C976.7375503838103 586.4906895922544 865.5695503838105 521.9786895922543 866.7215503838105 387.1946895922545C868.4495503838103 225.9146895922544 1007.8415503838104 172.3466895922545 1009.5695503838105 171.7706895922545C1008.4175503838104 167.7386895922545 987.1055503838104 95.1626895922544 935.8415503838104 20.2826895922543C891.4895503838103 -44.8053104077455 845.4095503838104 -109.3173104077457 772.8335503838103 -110.4693104077457C701.4095503838104 -112.1973104077456 678.3695503838104 -68.4213104077455 597.1535503838104 -68.4213104077455C515.3615503838104 -68.4213104077455 490.0165903838104 -109.3173104077457 422.6245903838104 -112.1973104077456C352.3525903838104 -114.5013104077457 299.3605903838104 -41.9253104077457 254.4325903838104 22.5866895922544C162.8485903838104 155.0666895922543 93.1525903838104 395.8346895922544 187.0405903838104 558.8426895922544C233.6965903838104 640.0586895922544 316.6405903838104 691.3226895922544 407.0725903838104 692.4746895922544C475.6165903838104 694.2026895922544 540.7055503838104 646.3946895922544 582.7535503838104 646.3946895922544C624.2255503838104 646.3946895922544 698.5295503838104 701.6906895922543 787.2335503838104 694.7786895922544zM732.5135503838104 782.3306895922544C695.0735503838104 737.4026895922543 634.0175503838104 702.2666895922544 574.6895503838103 706.8746895922543C566.6255503838104 767.9306895922543 596.5775503838104 831.8666895922544 631.1375503838104 871.6106895922544C669.7295503838104 916.5386895922544 734.2415503838104 949.9467855922544 787.8095503838103 952.2507855922544C794.7215503838105 890.0426895922544 769.9535503838104 827.2586895922544 732.5135503838104 782.3306895922544z" />
    <glyph glyph-name="apps-2-fill"
      unicode="&#xEA41;"
      horiz-adv-x="1152" d="M336 444C216.70656 444 120 540.7065600000001 120 660C120 779.29344 216.70656 876 336 876C455.29344 876 552 779.29344 552 660C552 540.7065600000001 455.29344 444 336 444zM336 -36C216.70656 -36 120 60.7056 120 180C120 299.2944 216.70656 396 336 396C455.29344 396 552 299.2944 552 180C552 60.7056 455.29344 -36 336 -36zM816 444C696.7056 444 600 540.7065600000001 600 660C600 779.29344 696.7056 876 816 876C935.2944 876 1032 779.29344 1032 660C1032 540.7065600000001 935.2944 444 816 444zM816 -36C696.7056 -36 600 60.7056 600 180C600 299.2944 696.7056 396 816 396C935.2944 396 1032 299.2944 1032 180C1032 60.7056 935.2944 -36 816 -36z" />
    <glyph glyph-name="apps-2-line"
      unicode="&#xEA42;"
      horiz-adv-x="1152" d="M336 444C216.70656 444 120 540.7065600000001 120 660C120 779.29344 216.70656 876 336 876C455.29344 876 552 779.29344 552 660C552 540.7065600000001 455.29344 444 336 444zM336 -36C216.70656 -36 120 60.7056 120 180C120 299.2944 216.70656 396 336 396C455.29344 396 552 299.2944 552 180C552 60.7056 455.29344 -36 336 -36zM816 444C696.7056 444 600 540.7065600000001 600 660C600 779.29344 696.7056 876 816 876C935.2944 876 1032 779.29344 1032 660C1032 540.7065600000001 935.2944 444 816 444zM816 -36C696.7056 -36 600 60.7056 600 180C600 299.2944 696.7056 396 816 396C935.2944 396 1032 299.2944 1032 180C1032 60.7056 935.2944 -36 816 -36zM336 540C402.2740800000001 540 456 593.72592 456 660C456 726.2740799999999 402.2740800000001 780 336 780C269.7259200000001 780 216 726.2740799999999 216 660C216 593.72592 269.7259200000001 540 336 540zM336 60C402.2740800000001 60 456 113.7264 456 180C456 246.2736 402.2740800000001 300 336 300C269.7259200000001 300 216 246.2736 216 180C216 113.7264 269.7259200000001 60 336 60zM816 540C882.2736 540 936 593.72592 936 660C936 726.2740799999999 882.2736 780 816 780C749.7264 780 696 726.2740799999999 696 660C696 593.72592 749.7264 540 816 540zM816 60C882.2736 60 936 113.7264 936 180C936 246.2736 882.2736 300 816 300C749.7264 300 696 246.2736 696 180C696 113.7264 749.7264 60 816 60z" />
    <glyph glyph-name="apps-fill"
      unicode="&#xEA43;"
      horiz-adv-x="1152" d="M324 876C436.66608 876 528 784.66608 528 672V468H324C211.33392 468 120 559.33392 120 672C120 784.66608 211.33392 876 324 876zM324 372H528V168C528 55.3344 436.66608 -36 324 -36C211.33392 -36 120 55.3344 120 168C120 280.6656000000001 211.33392 372 324 372zM828 876C940.6656 876 1032 784.66608 1032 672C1032 559.33392 940.6656 468 828 468H624V672C624 784.66608 715.3344 876 828 876zM624 372H828C940.6656 372 1032 280.6656000000001 1032 168C1032 55.3344 940.6656 -36 828 -36C715.3344 -36 624 55.3344 624 168V372z" />
    <glyph glyph-name="apps-line"
      unicode="&#xEA44;"
      horiz-adv-x="1152" d="M324 876C436.66608 876 528 784.66608 528 672V468H324C211.33392 468 120 559.33392 120 672C120 784.66608 211.33392 876 324 876zM432 564V672C432 731.64672 383.64672 780 324 780C264.3532800000001 780 216 731.64672 216 672C216 612.35328 264.3532800000001 564 324 564H432zM324 372H528V168C528 55.3344 436.66608 -36 324 -36C211.33392 -36 120 55.3344 120 168C120 280.6656000000001 211.33392 372 324 372zM324 276C264.3532800000001 276 216 227.6448000000001 216 168C216 108.3552 264.3532800000001 60 324 60C383.64672 60 432 108.3552 432 168V276H324zM828 876C940.6656 876 1032 784.66608 1032 672C1032 559.33392 940.6656 468 828 468H624V672C624 784.66608 715.3344 876 828 876zM828 564C887.6448 564 936 612.35328 936 672C936 731.64672 887.6448 780 828 780C768.3552 780 720 731.64672 720 672V564H828zM624 372H828C940.6656 372 1032 280.6656000000001 1032 168C1032 55.3344 940.6656 -36 828 -36C715.3344 -36 624 55.3344 624 168V372zM720 276V168C720 108.3552 768.3552 60 828 60C887.6448 60 936 108.3552 936 168C936 227.6448000000001 887.6448 276 828 276H720z" />
    <glyph glyph-name="archive-drawer-fill"
      unicode="&#xEA45;"
      horiz-adv-x="1152" d="M144 372H1008V-12.1200000000001C1008 -38.5632 986.6448 -60 960.3168 -60H191.6832C165.34848 -60 144 -38.5776000000001 144 -12.1200000000001V372zM144 852.11808C144 878.56224 165.3576 900 191.6832 900H960.3168C986.6496 900 1008 878.57712 1008 852.11808V468H144V852.11808zM432 756V660H720V756H432zM432 228V132H720V228H432z" />
    <glyph glyph-name="archive-drawer-line"
      unicode="&#xEA46;"
      horiz-adv-x="1152" d="M144 852.3936C144 878.6856 165.3576 900 191.6832 900H960.3168C986.6496 900 1008 878.14512 1008 852.3936V-12.3935999999999C1008 -38.6880000000001 986.6448 -60 960.3168 -60H191.6832C165.34848 -60 144 -38.1455999999998 144 -12.3935999999999V852.3936zM912 468V804H240V468H912zM912 372H240V36H912V372zM432 708H720V612H432V708zM432 276H720V180H432V276z" />
    <glyph glyph-name="archive-fill"
      unicode="&#xEA47;"
      horiz-adv-x="1152" d="M144 516H1008V35.7888C1008 9.3935999999999 986.6448 -12 960.3168 -12H191.6832C165.34848 -12 144 9.3504 144 35.7888V516zM432 420V324H720V420H432zM96 804.0091199999999C96 830.51376 117.85488 852 143.6064 852H1008.3935999999998C1034.688 852 1056 830.70144 1056 804.0091199999999V612H96V804.0091199999999z" />
    <glyph glyph-name="archive-line"
      unicode="&#xEA48;"
      horiz-adv-x="1152" d="M144 516H96V803.8593599999999C96 830.44656 117.85488 852 143.6064 852H1008.3935999999998C1034.688 852 1056 830.98176 1056 803.8593599999999V516H1008V35.928C1008 9.4559999999999 986.6448 -12 960.3168 -12H191.6832C165.34848 -12 144 9.48 144 35.928V516zM912 516H240V84H912V516zM192 756V612H960V756H192zM432 420H720V324H432V420z" />
    <glyph glyph-name="arrow-down-circle-fill"
      unicode="&#xEA49;"
      horiz-adv-x="1152" d="M576 900C840.96 900 1056 684.96 1056 420C1056 155.04 840.96 -60 576 -60C311.04 -60 96 155.04 96 420C96 684.96 311.04 900 576 900zM624 420V612H528V420H384L576 228L768 420H624z" />
    <glyph glyph-name="arrow-down-circle-line"
      unicode="&#xEA4A;"
      horiz-adv-x="1152" d="M576 900C840.96 900 1056 684.96 1056 420C1056 155.04 840.96 -60 576 -60C311.04 -60 96 155.04 96 420C96 684.96 311.04 900 576 900zM576 36C788.1600000000001 36 960 207.8399999999999 960 420C960 632.16 788.1600000000001 804 576 804C363.8400000000001 804 192 632.16 192 420C192 207.8399999999999 363.8400000000001 36 576 36zM624 420H768L576 228L384 420H528V612H624V420z" />
    <glyph glyph-name="arrow-down-fill"
      unicode="&#xEA4B;"
      horiz-adv-x="1152" d="M624 420H960L576 36L192 420H528V804H624V420z" />
    <glyph glyph-name="arrow-down-line"
      unicode="&#xEA4C;"
      horiz-adv-x="1152" d="M624.00288 219.7631999999999L881.47008 477.2352L949.35168 409.3536000000001L576.00288 36L202.64832 409.3536000000001L270.5304 477.2352L528.00288 219.7631999999999V804H624.00288V219.7631999999999z" />
    <glyph glyph-name="arrow-down-s-fill"
      unicode="&#xEA4D;"
      horiz-adv-x="1152" d="M576 276L288 564H864L576 276z" />
    <glyph glyph-name="arrow-down-s-line"
      unicode="&#xEA4E;"
      horiz-adv-x="1152" d="M575.9990399999999 369.09072L813.58944 606.6772800000001L881.47104 538.7952L575.9990399999999 233.32272L270.52896 538.7952L338.41152 606.6772800000001L575.9990399999999 369.09072z" />
    <glyph glyph-name="arrow-drop-down-fill"
      unicode="&#xEA4F;"
      horiz-adv-x="1152" d="M576 324L384 516H768L576 324z" />
    <glyph glyph-name="arrow-drop-down-line"
      unicode="&#xEA50;"
      horiz-adv-x="1152" d="M576.0019199999999 284.2356L372.35328 487.8804L440.23584 555.7644L576.0019199999999 419.9988000000001L711.76512 555.7644L779.64672 487.8804L576.0019199999999 284.2356z" />
    <glyph glyph-name="arrow-drop-left-fill"
      unicode="&#xEA51;"
      horiz-adv-x="1152" d="M480 420L672 612V228L480 420z" />
    <glyph glyph-name="arrow-drop-left-line"
      unicode="&#xEA52;"
      horiz-adv-x="1152" d="M575.9975999999999 419.99784L711.7656 284.23464L643.8792000000001 216.3530400000001L440.2344 419.99784L643.8792000000001 623.6469599999999L711.7656 555.7644L575.9975999999999 419.99784z" />
    <glyph glyph-name="arrow-drop-right-fill"
      unicode="&#xEA53;"
      horiz-adv-x="1152" d="M672 420L480 228V612L672 420z" />
    <glyph glyph-name="arrow-drop-right-line"
      unicode="&#xEA54;"
      horiz-adv-x="1152" d="M576.00096 419.99784L440.2358400000001 555.7644L508.11936 623.6469599999999L711.76416 419.99784L508.11936 216.3530400000001L440.2358400000001 284.23464L576.00096 419.99784z" />
    <glyph glyph-name="arrow-drop-up-fill"
      unicode="&#xEA55;"
      horiz-adv-x="1152" d="M576 516L768 324H384L576 516z" />
    <glyph glyph-name="arrow-drop-up-line"
      unicode="&#xEA56;"
      horiz-adv-x="1152" d="M576.0019199999999 420.0024L440.23584 284.2344L372.35328 352.1208L576.0019199999999 555.7656L779.64672 352.1208L711.76512 284.2344L576.0019199999999 420.0024z" />
    <glyph glyph-name="arrow-go-back-fill"
      unicode="&#xEA57;"
      horiz-adv-x="1152" d="M408 612V420L120 660L408 900V708H648C860.0783999999999 708 1032 536.07744 1032 324C1032 111.9216000000001 860.0783999999999 -60 648 -60H216V36H648C807.0576000000001 36 936 164.9423999999999 936 324C936 483.05808 807.0576000000001 612 648 612H408z" />
    <glyph glyph-name="arrow-go-back-line"
      unicode="&#xEA58;"
      horiz-adv-x="1152" d="M303.76464 613.2072000000001L425.4700800000001 491.50128L357.588 423.6192000000001L120 661.2072000000001L357.588 898.7952L425.4700800000001 830.91264L303.76464 709.2072000000001H648C860.0783999999999 709.2072000000001 1032 537.2846400000001 1032 325.2048000000001C1032 113.1312 860.0783999999999 -58.7952 648 -58.7952H216V37.2048H648C807.0576000000001 37.2048 936 166.1471999999999 936 325.2048000000001C936 484.26528 807.0576000000001 613.2072000000001 648 613.2072000000001H303.76464z" />
    <glyph glyph-name="arrow-go-forward-fill"
      unicode="&#xEA59;"
      horiz-adv-x="1152" d="M744 612H504C344.94192 612 216 483.05808 216 324C216 164.9423999999999 344.94192 36 504 36H936V-60H504C291.92256 -60 120 111.9216000000001 120 324C120 536.07744 291.92256 708 504 708H744V900L1032 660L744 420V612z" />
    <glyph glyph-name="arrow-go-forward-line"
      unicode="&#xEA5A;"
      horiz-adv-x="1152" d="M848.2368000000001 613.2072000000001H504C344.94192 613.2072000000001 216 484.26528 216 325.2048000000001C216 166.1471999999999 344.94192 37.2048 504 37.2048H936V-58.7952H504C291.92256 -58.7952 120 113.1312 120 325.2048000000001C120 537.2846400000001 291.92256 709.2072000000001 504 709.2072000000001H848.2368000000001L726.528 830.91264L794.4144 898.7952L1032 661.2072000000001L794.4144 423.6192000000001L726.528 491.50128L848.2368000000001 613.2072000000001z" />
    <glyph glyph-name="arrow-left-circle-fill"
      unicode="&#xEA5B;"
      horiz-adv-x="1152" d="M576 900C840.96 900 1056 684.96 1056 420C1056 155.04 840.96 -60 576 -60C311.04 -60 96 155.04 96 420C96 684.96 311.04 900 576 900zM576 468V612L384 420L576 228V372H768V468H576z" />
    <glyph glyph-name="arrow-left-circle-line"
      unicode="&#xEA5C;"
      horiz-adv-x="1152" d="M576 900C840.96 900 1056 684.96 1056 420C1056 155.04 840.96 -60 576 -60C311.04 -60 96 155.04 96 420C96 684.96 311.04 900 576 900zM576 36C788.1600000000001 36 960 207.8399999999999 960 420C960 632.16 788.1600000000001 804 576 804C363.8400000000001 804 192 632.16 192 420C192 207.8399999999999 363.8400000000001 36 576 36zM576 468H768V372H576V228L384 420L576 612V468z" />
    <glyph glyph-name="arrow-left-down-fill"
      unicode="&#xEA5D;"
      horiz-adv-x="1152" d="M592.9687199999998 369.0904800000001L830.5591199999999 131.50008H287.5000799999999V674.5586400000001L525.0871199999999 436.97208L796.6183199999998 708.49992L864.49992 640.6178400000001L592.9687199999998 369.0904800000001z" />
    <glyph glyph-name="arrow-left-down-line"
      unicode="&#xEA5E;"
      horiz-adv-x="1152" d="M383.5008 295.38288L796.6176 708.49872L864.4992 640.61616L451.3823999999999 227.50128H815.5008V131.50128H287.5008V659.49936H383.5008V295.38288z" />
    <glyph glyph-name="arrow-left-fill"
      unicode="&#xEA5F;"
      horiz-adv-x="1152" d="M576 372V36L192 420L576 804V468H960V372H576z" />
    <glyph glyph-name="arrow-left-line"
      unicode="&#xEA60;"
      horiz-adv-x="1152" d="M375.76464 467.9971199999999H960V371.99712H375.76464L633.2352 114.5299199999999L565.3536 46.6483200000001L192 419.99712L565.3536 793.35168L633.2352 725.4696000000001L375.76464 467.9971199999999z" />
    <glyph glyph-name="arrow-left-right-fill"
      unicode="&#xEA61;"
      horiz-adv-x="1152" d="M768 228V420L1008 180L768 -60V132H192V228H768zM384 900V708.048L960 708V612H384V420L144 660L384 900z" />
    <glyph glyph-name="arrow-left-right-line"
      unicode="&#xEA62;"
      horiz-adv-x="1152" d="M770.4144 417.5880000000001L1008 179.9976L770.4144 -57.5880000000001L702.528 10.2936000000001L824.2560000000001 132.0360000000002L192 131.9976V227.9976000000002L824.2560000000001 228.0360000000002L702.528 349.7064000000001L770.4144 417.5880000000001zM381.588 897.5880000000001L449.4700800000001 829.7054400000001L327.7440000000001 708.0360000000001L960 708.0000000000001V612.0000000000001L327.7440000000001 612.0360000000001L449.4700800000001 490.2936000000001L381.588 422.4120000000002L144 660.0000000000001L381.588 897.5880000000001z" />
    <glyph glyph-name="arrow-left-s-fill"
      unicode="&#xEA63;"
      horiz-adv-x="1152" d="M432 420L720 708V132L432 420z" />
    <glyph glyph-name="arrow-left-s-line"
      unicode="&#xEA64;"
      horiz-adv-x="1152" d="M525.0863999999999 419.9980800000001L762.6768 182.4124800000002L694.7952 114.53088L389.3232 419.9980800000001L694.7952 725.46912L762.6768 657.5870400000001L525.0863999999999 419.9980800000001z" />
    <glyph glyph-name="arrow-left-up-fill"
      unicode="&#xEA65;"
      horiz-adv-x="1152" d="M592.9687199999998 470.91288L864.49992 199.3816800000001L796.6183199999998 131.5000799999999L525.0871199999999 403.0312800000001L287.5000799999999 165.44088V708.4999200000001H830.5591199999999L592.9687199999998 470.91288z" />
    <glyph glyph-name="arrow-left-up-line"
      unicode="&#xEA66;"
      horiz-adv-x="1152" d="M451.38288 612.4992L864.4992 199.3824L796.6176 131.5008L383.5008 544.6171199999999V180.4992H287.5008V708.4992H815.5008V612.4992H451.38288z" />
    <glyph glyph-name="arrow-right-circle-fill"
      unicode="&#xEA67;"
      horiz-adv-x="1152" d="M576 900C840.96 900 1056 684.96 1056 420C1056 155.04 840.96 -60 576 -60C311.04 -60 96 155.04 96 420C96 684.96 311.04 900 576 900zM576 468H384V372H576V228L768 420L576 612V468z" />
    <glyph glyph-name="arrow-right-circle-line"
      unicode="&#xEA68;"
      horiz-adv-x="1152" d="M576 468V612L768 420L576 228V372H384V468H576zM576 900C840.96 900 1056 684.96 1056 420C1056 155.04 840.96 -60 576 -60C311.04 -60 96 155.04 96 420C96 684.96 311.04 900 576 900zM576 36C788.1600000000001 36 960 207.8399999999999 960 420C960 632.16 788.1600000000001 804 576 804C363.8400000000001 804 192 632.16 192 420C192 207.8399999999999 363.8400000000001 36 576 36z" />
    <glyph glyph-name="arrow-right-down-fill"
      unicode="&#xEA69;"
      horiz-adv-x="1152" d="M559.0274400000001 369.0904800000001L287.50056 640.6178400000001L355.38312 708.49992L626.9138399999999 436.97208L864.49944 674.5586400000001V131.50008H321.44184L559.0274400000001 369.0904800000001z" />
    <glyph glyph-name="arrow-right-down-line"
      unicode="&#xEA6A;"
      horiz-adv-x="1152" d="M700.61736 227.50128L287.50104 640.61616L355.38312 708.49872L768.4989599999999 295.38288V659.49936H864.4989599999999V131.50128H336.5004V227.50128H700.61736z" />
    <glyph glyph-name="arrow-right-fill"
      unicode="&#xEA6B;"
      horiz-adv-x="1152" d="M576 372H192V468H576V804L960 420L576 36V372z" />
    <glyph glyph-name="arrow-right-line"
      unicode="&#xEA6C;"
      horiz-adv-x="1152" d="M776.2368000000001 467.9971199999999L518.7648 725.4696000000001L586.6464 793.35168L960 419.99712L586.6464 46.6483200000001L518.7648 114.5299199999999L776.2368000000001 371.99712H192V467.9971199999999H776.2368000000001z" />
    <glyph glyph-name="arrow-right-s-fill"
      unicode="&#xEA6D;"
      horiz-adv-x="1152" d="M720 420L432 132V708L720 420z" />
    <glyph glyph-name="arrow-right-s-line"
      unicode="&#xEA6E;"
      horiz-adv-x="1152" d="M626.9092800000001 419.9980800000001L389.32272 657.5870400000001L457.2048 725.46912L762.6772800000001 419.9980800000001L457.2048 114.53088L389.32272 182.4124800000002L626.9092800000001 419.9980800000001z" />
    <glyph glyph-name="arrow-right-up-fill"
      unicode="&#xEA6F;"
      horiz-adv-x="1152" d="M626.9138399999999 403.0312800000001L355.38312 131.5000799999999L287.50056 199.3816800000001L559.0274400000001 470.91288L321.44184 708.4999200000001H864.49944V165.44088L626.9138399999999 403.0312800000001z" />
    <glyph glyph-name="arrow-right-up-line"
      unicode="&#xEA70;"
      horiz-adv-x="1152" d="M768.4989599999999 544.6171199999999L355.38312 131.5008L287.50104 199.3824L700.61736 612.4992H336.5004V708.4992H864.4989599999999V180.4992H768.4989599999999V544.6171199999999z" />
    <glyph glyph-name="arrow-up-circle-fill"
      unicode="&#xEA71;"
      horiz-adv-x="1152" d="M576 900C840.96 900 1056 684.96 1056 420C1056 155.04 840.96 -60 576 -60C311.04 -60 96 155.04 96 420C96 684.96 311.04 900 576 900zM624 420H768L576 612L384 420H528V228H624V420z" />
    <glyph glyph-name="arrow-up-circle-line"
      unicode="&#xEA72;"
      horiz-adv-x="1152" d="M576 900C840.96 900 1056 684.96 1056 420C1056 155.04 840.96 -60 576 -60C311.04 -60 96 155.04 96 420C96 684.96 311.04 900 576 900zM576 36C788.1600000000001 36 960 207.8399999999999 960 420C960 632.16 788.1600000000001 804 576 804C363.8400000000001 804 192 632.16 192 420C192 207.8399999999999 363.8400000000001 36 576 36zM624 420V228H528V420H384L576 612L768 420H624z" />
    <glyph glyph-name="arrow-up-down-fill"
      unicode="&#xEA73;"
      horiz-adv-x="1152" d="M576 612H384.048L384 36H288V612H96L336 852L576 612zM1056 228L816 -12L576 228H768V804H864V228H1056z" />
    <glyph glyph-name="arrow-up-down-line"
      unicode="&#xEA74;"
      horiz-adv-x="1152" d="M573.58824 614.412L505.70664 546.52992L384.03576 668.256L383.9997600000001 36H287.9997600000001L288.03576 668.256L166.29432 546.52992L98.41176 614.412L335.9997600000001 852L573.58824 614.412zM1053.58824 225.5856L815.99784 -12L578.41224 225.5856L646.2938399999999 293.472L768.0362400000001 171.7439999999999L767.99784 804H863.99784L864.0362400000001 171.7439999999999L985.7066399999998 293.472L1053.58824 225.5856z" />
    <glyph glyph-name="arrow-up-fill"
      unicode="&#xEA75;"
      horiz-adv-x="1152" d="M624 420V36H528V420H192L576 804L960 420H624z" />
    <glyph glyph-name="arrow-up-line"
      unicode="&#xEA76;"
      horiz-adv-x="1152" d="M624.00288 620.23536V36H528.00288V620.23536L270.5304 362.7648000000001L202.64832 430.6464L576.00288 804L949.35168 430.6464L881.47008 362.7648000000001L624.00288 620.23536z" />
    <glyph glyph-name="arrow-up-s-fill"
      unicode="&#xEA77;"
      horiz-adv-x="1152" d="M576 564L864 276H288L576 564z" />
    <glyph glyph-name="arrow-up-s-line"
      unicode="&#xEA78;"
      horiz-adv-x="1152" d="M575.9990399999999 470.9136L338.41152 233.3232L270.52896 301.2048000000001L575.9990399999999 606.6768L881.47104 301.2048000000001L813.58944 233.3232L575.9990399999999 470.9136z" />
    <glyph glyph-name="artboard-2-fill"
      unicode="&#xEA79;"
      horiz-adv-x="1152" d="M288 708H864V132H288V708zM288 900H384V756H288V900zM288 84H384V-60H288V84zM96 708H240V612H96V708zM96 228H240V132H96V228zM912 708H1056V612H912V708zM912 228H1056V132H912V228zM768 900H864V756H768V900zM768 84H864V-60H768V84z" />
    <glyph glyph-name="artboard-2-line"
      unicode="&#xEA7A;"
      horiz-adv-x="1152" d="M384 612V228H768V612H384zM288 708H864V132H288V708zM288 900H384V756H288V900zM288 84H384V-60H288V84zM96 708H240V612H96V708zM96 228H240V132H96V228zM912 708H1056V612H912V708zM912 228H1056V132H912V228zM768 900H864V756H768V900zM768 84H864V-60H768V84z" />
    <glyph glyph-name="artboard-fill"
      unicode="&#xEA7B;"
      horiz-adv-x="1152" d="M412.11792 195.7656H144V291.7656H1008V195.7656H739.8815999999999L895.5312 40.1207999999999L827.6448 -27.7655999999999L624 175.8839999999999V51.7656H528V175.8839999999999L324.3532800000001 -27.7655999999999L256.4712 40.1207999999999L412.11792 195.7656zM240 867.7656H912C938.5103999999998 867.7656 960 846.27504 960 819.7656V339.7656H192V819.7656C192 846.27504 213.49056 867.7656 240 867.7656z" />
    <glyph glyph-name="artboard-line"
      unicode="&#xEA7C;"
      horiz-adv-x="1152" d="M412.11792 195.7656H144V291.7656H1008V195.7656H739.8815999999999L895.5312 40.1207999999999L827.6448 -27.7655999999999L624 175.8839999999999V51.7656H528V175.8839999999999L324.3532800000001 -27.7655999999999L256.4712 40.1207999999999L412.11792 195.7656zM240 867.7656H912C938.5103999999998 867.7656 960 846.27504 960 819.7656V339.7656H192V819.7656C192 846.27504 213.49056 867.7656 240 867.7656zM288 771.7656V435.7656H864V771.7656H288z" />
    <glyph glyph-name="article-fill"
      unicode="&#xEA7D;"
      horiz-adv-x="1152" d="M960 -60H192C165.49056 -60 144 -38.5103999999999 144 -12V852C144 878.50944 165.49056 900 192 900H960C986.5103999999998 900 1008 878.50944 1008 852V-12C1008 -38.5103999999999 986.5103999999998 -60 960 -60zM336 708V516H528V708H336zM336 420V324H816V420H336zM336 228V132H816V228H336zM624 660V564H816V660H624z" />
    <glyph glyph-name="article-line"
      unicode="&#xEA7E;"
      horiz-adv-x="1152" d="M960 -60H192C165.49056 -60 144 -38.5103999999999 144 -12V852C144 878.50944 165.49056 900 192 900H960C986.5103999999998 900 1008 878.50944 1008 852V-12C1008 -38.5103999999999 986.5103999999998 -60 960 -60zM912 36V804H240V36H912zM336 708H528V516H336V708zM336 420H816V324H336V420zM336 228H816V132H336V228zM624 660H816V564H624V660z" />
    <glyph glyph-name="aspect-ratio-fill"
      unicode="&#xEA7F;"
      horiz-adv-x="1152" d="M1008 852C1034.5104 852 1056 830.50944 1056 804V36C1056 9.4896000000001 1034.5104 -12 1008 -12H144C117.49056 -12 96 9.4896000000001 96 36V804C96 830.50944 117.49056 852 144 852H1008zM864 420H768V276H624V180H864V420zM528 660H288V420H384V564H528V660z" />
    <glyph glyph-name="aspect-ratio-line"
      unicode="&#xEA80;"
      horiz-adv-x="1152" d="M1008 852C1034.5104 852 1056 830.50944 1056 804V36C1056 9.4896000000001 1034.5104 -12 1008 -12H144C117.49056 -12 96 9.4896000000001 96 36V804C96 830.50944 117.49056 852 144 852H1008zM960 756H192V84H960V756zM624 180V276H768V420H864V180H624zM528 660V564H384V420H288V660H528z" />
    <glyph glyph-name="asterisk"
      unicode="&#xEA81;"
      horiz-adv-x="1152" d="M624.0004799999999 852L623.9908800000001 503.184L926.12208 677.56944L974.12208 594.4310399999999L672.0388799999998 420.048L974.12208 245.568L926.12208 162.432L623.9908800000001 336.8640000000001L624.0004799999999 -12H528.0004799999999L527.9908800000001 336.8640000000001L225.87792 162.432L177.87792 245.568L479.9419199999999 420L177.87792 594.4310399999999L225.87792 677.56944L527.9908800000001 503.184L528.0004799999999 852H624.0004799999999z" />
    <glyph glyph-name="at-fill"
      unicode="&#xEA82;"
      horiz-adv-x="1152" d="M576 -60C310.9032 -60 96 154.9056000000001 96 420C96 685.0968 310.9032 900 576 900C841.0944 900 1056 685.0968 1056 420C1056 154.9056000000001 841.0944 -60 576 -60zM960 420C960 632.07744 788.0783999999999 804 576 804C363.92256 804 192 632.07744 192 420C192 207.9216000000001 363.92256 36 576 36C646.5696 36 712.6944 55.0368 769.5168000000001 88.2528L721.1376 171.192C678.5232 146.2752000000001 628.9296 132 576 132C416.94192 132 288 260.9423999999999 288 420C288 579.05808 416.94192 708 576 708C735.0576000000001 708 864 579.05808 864 420V372C864 345.4896 842.5103999999999 324 816 324C789.4896000000001 324 768 345.4896 768 372V564H702.9984C669.1536 593.87328 624.6912 612 576 612C469.96128 612 384 526.03872 384 420C384 313.9632000000001 469.96128 228 576 228C626.232 228 671.9568 247.2864 706.1712 278.8608C732.5856 247.7472 771.9888000000001 228 816 228C895.5312 228 960 292.4688 960 372V420zM576 516C629.0208 516 672 473.0208 672 420C672 366.9792 629.0208 324 576 324C522.9792 324 480 366.9792 480 420C480 473.0208 522.9792 516 576 516z" />
    <glyph glyph-name="at-line"
      unicode="&#xEA83;"
      horiz-adv-x="1152" d="M960 420C960 632.07744 788.0783999999999 804 576 804C363.92256 804 192 632.07744 192 420C192 207.9216000000001 363.92256 36 576 36C654.8063999999999 36 728.0688 59.7407999999999 789.0287999999999 100.4592L842.2847999999999 20.5727999999999C766.0896 -30.3263999999999 674.5104 -60 576 -60C310.9032 -60 96 154.9056000000001 96 420C96 685.0968 310.9032 900 576 900C841.0944 900 1056 685.0968 1056 420V348C1056 255.216 980.784 180 888 180C830.1984 180 779.2128 209.1936000000001 748.9824 253.6368C705.3216 208.2480000000001 643.9584 180 576 180C443.4518400000001 180 336 287.4528 336 420C336 552.5481599999999 443.4518400000001 660 576 660C630.0384 660 679.9056 642.13968 720.024 612H816V348C816 308.2368 848.2368000000001 276 888 276C927.7631999999998 276 960 308.2368 960 348V420zM576 564C496.4688 564 432 499.5312 432 420C432 340.4688 496.4688 276 576 276C655.5312 276 720 340.4688 720 420C720 499.5312 655.5312 564 576 564z" />
    <glyph glyph-name="attachment-2"
      unicode="&#xEA84;"
      horiz-adv-x="1152" d="M727.0318200000002 603.7648800000001L455.5006200000001 332.23368C436.7551800000001 313.48968 436.7551800000001 283.10088 455.5006200000001 264.35208C474.2455800000001 245.6080800000001 504.63822 245.6080800000001 523.3822200000002 264.35208L794.9134200000001 535.8828000000001C851.1454200000001 592.11816 851.1454200000001 683.29368 794.9134200000001 739.52952C738.6766200000002 795.7648800000001 647.50062 795.7648800000001 591.2638200000001 739.52952L319.7359800000001 468.00168C226.0102200000001 374.27688 226.0102200000001 222.3136800000001 319.7359800000001 128.58888C413.4617400000001 34.8640799999999 565.4206200000001 34.8640799999999 659.1454200000001 128.58888L930.6766200000002 400.1200800000001L998.5582199999998 332.23368L727.0318200000002 60.70728C595.8142200000002 -70.51032 383.0700600000001 -70.51032 251.8539000000001 60.70728C120.6377400000001 191.9248800000002 120.6377400000001 404.66568 251.8539000000001 535.8828000000001L523.3822200000002 807.4116C617.1070200000001 901.13736 769.0702200000001 901.13736 862.79502 807.4116C956.51982 713.68584 956.51982 561.726 862.79502 468.00168L591.2638200000001 196.4704800000001C535.0318200000002 140.2336799999999 443.8539000000001 140.2336799999999 387.6185400000001 196.4704800000001C331.3827000000001 252.7072800000001 331.3827000000001 343.88328 387.6185400000001 400.1200800000001L659.1454200000001 671.64696L727.0318200000002 603.7648800000001z" />
    <glyph glyph-name="attachment-fill"
      unicode="&#xEA85;"
      horiz-adv-x="1152" d="M1007.8608 852.3936L1007.9952 -12.3935999999999C1007.9952 -38.1455999999998 986.6543999999998 -60 960.3216 -60H191.688C165.3624 -60 144.0048 -38.6880000000001 144.0048 -12.3935999999999V852.3936C144.0048 878.14512 165.34944 900 191.67936 900H960.1776C986.4959999999998 900 1007.856 878.6856 1007.8608 852.3936zM432.0048 372V564C432.0048 590.50944 453.49536 612 480.0048 612C506.5152 612 528.0047999999999 590.50944 528.0047999999999 564V372C528.0047999999999 345.4896 549.4944 324 576.0047999999999 324C602.5152 324 624.0047999999999 345.4896 624.0047999999999 372V564C624.0047999999999 643.5288 559.5360000000001 708 480.0048 708C400.476 708 336.0048 643.5288 336.0048 564V372C336.0048 239.4528 443.4566400000001 132 576.0047999999999 132C708.5519999999999 132 816.0047999999999 239.4528 816.0047999999999 372V612H720.0047999999999V372C720.0047999999999 292.4688 655.5360000000001 228 576.0047999999999 228C496.4736 228 432.0048 292.4688 432.0048 372z" />
    <glyph glyph-name="attachment-line"
      unicode="&#xEA86;"
      horiz-adv-x="1152" d="M648 348V612C648 718.03872 562.0368 804 456 804C349.96128 804 264 718.03872 264 612V348C264 175.6848 403.6872 36 576 36C748.3152 36 888 175.6848 888 348V804H984V348C984 122.6687999999999 801.3312000000001 -60 576 -60C350.66784 -60 168 122.6687999999999 168 348V612C168 771.05808 296.94192 900 456 900C615.0576000000001 900 744 771.05808 744 612V348C744 255.216 668.784 180 576 180C483.216 180 408 255.216 408 348V612H504V348C504 308.2368 536.2368 276 576 276C615.7632 276 648 308.2368 648 348z" />
    <glyph glyph-name="auction-fill"
      unicode="&#xEA87;"
      horiz-adv-x="1152" d="M646.2940799999999 4.47036V-91.52964H70.2931199999999V4.47036H646.2940799999999zM674.41248 931.52964L1047.7612800000002 558.17724L979.8796799999998 490.29516L928.9708799999999 507.2655600000001L810.1756799999999 388.4703600000001L1081.7068800000002 116.94396L1013.82048 49.0623600000001L742.2940799999999 320.58876L626.8924799999999 205.19196L640.4716799999999 150.8847599999999L572.5852799999999 83.0031600000001L199.2350399999999 456.35196L267.1175999999999 524.23596L321.42336 510.65964L623.4988799999999 812.73564L606.5308799999999 863.64732L674.41248 931.52964z" />
    <glyph glyph-name="auction-line"
      unicode="&#xEA88;"
      horiz-adv-x="1152" d="M646.2940799999999 4.47036V-91.52964H70.2931199999999V4.47036H646.2940799999999zM674.41248 931.52964L1047.7612800000002 558.17724L979.8796799999998 490.29516L928.9708799999999 507.2655600000001L810.1756799999999 388.4703600000001L1081.7068800000002 116.94396L1013.82048 49.0623600000001L742.2940799999999 320.58876L626.8924799999999 205.19196L640.4716799999999 150.8847599999999L572.5852799999999 83.0031600000001L199.2350399999999 456.35196L267.1175999999999 524.23596L321.42336 510.65964L623.4988799999999 812.73564L606.5308799999999 863.64732L674.41248 931.52964zM708.3532799999999 761.8239599999999L368.94096 422.41116L538.6444799999999 252.7071600000001L878.05728 592.11852L708.3532799999999 761.8239599999999z" />
    <glyph glyph-name="award-fill"
      unicode="&#xEA89;"
      horiz-adv-x="1152" d="M816 255.0288000000001V-74.8032000000001C816 -88.056 805.2528 -98.808 792 -98.808C787.6512 -98.808 783.384 -97.6224000000002 779.6543999999999 -95.3856000000001L576 26.808L372.348 -95.3856000000001C360.98208 -102.2015999999999 346.23984 -98.5152 339.42 -87.1535999999999C337.18224 -83.4191999999998 336 -79.152 336 -74.8032000000001V255.0288000000001C248.21136 325.4016000000001 192 433.5408 192 554.808C192 766.88544 363.92256 938.808 576 938.808C788.0783999999999 938.808 960 766.88544 960 554.808C960 433.5408 903.7872 325.4016000000001 816 255.0288000000001zM576 266.808C735.0576000000001 266.808 864 395.7503999999999 864 554.808C864 713.86608 735.0576000000001 842.808 576 842.808C416.94192 842.808 288 713.86608 288 554.808C288 395.7503999999999 416.94192 266.808 576 266.808zM576 362.808C469.96128 362.808 384 448.7712 384 554.808C384 660.84672 469.96128 746.808 576 746.808C682.0368 746.808 768 660.84672 768 554.808C768 448.7712 682.0368 362.808 576 362.808z" />
    <glyph glyph-name="award-line"
      unicode="&#xEA8A;"
      horiz-adv-x="1152" d="M816 255.0288000000001V-74.8032000000001C816 -88.056 805.2528 -98.808 792 -98.808C787.6512 -98.808 783.384 -97.6224000000002 779.6543999999999 -95.3856000000001L576 26.808L372.348 -95.3856000000001C360.98208 -102.2015999999999 346.23984 -98.5152 339.42 -87.1535999999999C337.18224 -83.4191999999998 336 -79.152 336 -74.8032000000001V255.0288000000001C248.21136 325.4016000000001 192 433.5408 192 554.808C192 766.88544 363.92256 938.808 576 938.808C788.0783999999999 938.808 960 766.88544 960 554.808C960 433.5408 903.7872 325.4016000000001 816 255.0288000000001zM432 198.7199999999999V52.3632L576 138.7632L720 52.3632V198.7199999999999C675.5328000000001 180.7199999999999 626.9232 170.808 576 170.808C525.0768 170.808 476.46864 180.7199999999999 432 198.7199999999999zM576 266.808C735.0576000000001 266.808 864 395.7503999999999 864 554.808C864 713.86608 735.0576000000001 842.808 576 842.808C416.94192 842.808 288 713.86608 288 554.808C288 395.7503999999999 416.94192 266.808 576 266.808z" />
    <glyph glyph-name="baidu-fill"
      unicode="&#xEA8B;"
      horiz-adv-x="1152" d="M284.5535793181684 395.4800834471498C383.5703793181684 416.7440834471498 370.0794993181684 535.0736834471497 367.1159793181684 560.9365634471498C362.2665393181684 600.8087234471499 315.3695793181684 670.5018434471498 251.6860593181684 664.9890434471498C171.5481393181684 657.7981634471498 159.8394993181684 542.0365634471499 159.8394993181684 542.0365634471499C149.0010993181684 488.5280834471498 185.7854193181684 374.1968834471499 284.5535793181684 395.4800834471498zM389.7047793181684 189.6560834471497C386.8031793181684 181.3424834471499 380.3375793181684 160.0592834471498 385.9329393181684 141.5360834471498C396.9786993181684 99.9632834471498 433.0583793181684 98.0960834471498 433.0583793181684 98.0960834471498H484.9074993181684V224.8448834471497H429.3902193181684C404.4388593181684 217.4048834471499 392.3985393181684 197.9840834471498 389.7047793181684 189.6560834471497zM468.3297393181684 593.9077634471497C523.0194993181683 593.9077634471497 567.2226993181685 656.8448834471498 567.2226993181685 734.6615234471498C567.2226993181685 812.3956034471498 523.0194993181683 875.3120834471498 468.3297393181684 875.3120834471498C413.7230193181684 875.3120834471498 369.4161393181684 812.3956034471498 369.4161393181684 734.6615234471498C369.4161393181684 656.8448834471498 413.7441393181684 593.9077634471497 468.3297393181684 593.9077634471497zM703.8738993181685 584.6029634471498C776.9634993181683 575.1114434471498 823.9650993181683 653.1148034471498 833.3106993181682 712.2388034471497C842.8434993181684 771.2802434471498 795.6786993181684 839.8540034471498 743.9298993181683 851.6456834471497C692.0802993181683 863.5410434471498 627.3426993181683 780.4813634471498 621.4338993181684 726.3306434471498C614.3874993181685 660.1400834471498 630.9042993181683 593.9903234471498 703.8738993181685 584.6029634471498zM703.8498993181684 419.1248834471499C614.3682993181683 558.5533634471498 487.2498993181684 501.8144834471498 444.7257393181684 430.8944834471498C402.3873393181684 360.0032834471498 336.4036593181684 315.1568834471498 327.0369393181683 303.2816834471498C317.5247793181684 291.5936834471499 190.4274993181684 222.9776834471498 218.6529393181684 97.6640834471498C246.8577393181684 -27.5679165528501 345.9575793181684 -25.1871165528502 345.9575793181684 -25.1871165528502C345.9575793181684 -25.1871165528502 418.9871793181684 -32.3775165528502 503.7042993181684 -13.4175165528502C588.4626993181682 5.3792834471497 661.4322993181684 -18.0975165528502 661.4322993181684 -18.0975165528502C661.4322993181684 -18.0975165528502 859.4034993181683 -84.3951165528503 913.5762993181684 43.2224834471498C967.6818993181683 170.8784834471498 882.9666993181684 237.0704834471499 882.9666993181684 237.0704834471499C882.9666993181684 237.0704834471499 769.8786993181682 324.5648834471498 703.8498993181684 419.1248834471499zM415.5263793181684 47.1392834471498C359.9457393181684 58.2272834471497 337.8129393181684 96.1520834471497 335.0154993181684 102.6176834471498C332.2799793181684 109.1840834471499 316.4884593181684 139.6688834471498 324.8399793181684 191.5376834471498C348.8586993181684 269.2544834471497 417.3498993181684 274.8272834471499 417.3498993181684 274.8272834471499H485.8626993181684V359.0480834471498L544.2210993181684 358.1552834471499V47.1392834471498H415.5263793181684zM635.8386993181684 48.0320834471498C578.4354993181682 62.8256834471498 575.7618993181684 103.6112834471497 575.7618993181684 103.6112834471497V267.3872834471498L635.8386993181684 268.3616834471499V121.1648834471497C639.5058993181683 105.4544834471498 659.0082993181684 102.6176834471498 659.0082993181684 102.6176834471498H720.0354993181684V267.3872834471498H783.9474993181684V48.0320834471498H635.8386993181684zM993.6066993181682 485.3168834471497C993.6066993181682 513.6032834471498 970.1058993181684 598.7778434471498 882.9666993181684 598.7778434471498C795.6786993181684 598.7778434471498 784.0098993181684 518.3912834471498 784.0098993181684 461.5664834471498C784.0098993181684 407.3360834471498 788.5890993181683 331.6304834471498 897.0162993181684 334.0352834471498C1005.4818993181682 336.4400834471499 993.6066993181682 456.8816834471498 993.6066993181682 485.3168834471497z" />
    </font>
</defs>
</svg>
